<?xml version="1.0" standalone="no"?>
<!DOCTYPE svg PUBLIC "-//W3C//DTD SVG 1.1//EN" "http://www.w3.org/Graphics/SVG/1.1/DTD/svg11.dtd" >
<svg xmlns="http://www.w3.org/2000/svg">
<metadata>Generated by IcoMoon</metadata>
<defs>
<font id="icomoon" horiz-adv-x="1024">
<font-face units-per-em="1024" ascent="960" descent="-64" />
<missing-glyph horiz-adv-x="1024" />
<glyph unicode="&#x20;" horiz-adv-x="512" d="" />
<glyph unicode="&#xe900;" glyph-name="quote" horiz-adv-x="1560" d="M759.102 165.625l527.155 794.375 274.12-139.016-421.722-853.952-379.553 198.593zM-0.004 165.625l527.155 794.375 274.12-139.016-421.723-853.952-379.552 198.593z" />
<glyph unicode="&#xe901;" glyph-name="printer" d="M338.992 736h346.017c58.351 0.001 105.382 0.002 142.374-4.972 38.404-5.164 70.737-16.209 96.422-41.891 25.681-25.682 36.727-58.018 41.89-96.422 4.971-36.991 4.971-84.021 4.971-142.372v-4.685c0-58.351 0-105.382-4.971-142.374-5.163-38.404-16.209-70.737-41.89-96.422-37.21-37.205-89.041-44.126-154.842-46.106l-1.929 63.97c66.761 2.010 93.995 9.873 111.514 27.392 11.81 11.81 19.507 28.386 23.718 59.695 4.331 32.23 4.399 74.944 4.399 136.188s-0.068 103.959-4.399 136.187c-4.211 31.308-11.908 47.887-23.718 59.695s-28.386 19.508-59.695 23.717c-32.23 4.333-74.944 4.401-136.188 4.401h-341.333c-61.245 0-103.959-0.068-136.187-4.401-31.308-4.209-47.887-11.908-59.695-23.717s-19.508-28.388-23.717-59.695c-4.333-32.228-4.401-74.943-4.401-136.187s0.068-103.957 4.401-136.188c4.209-31.309 11.908-47.885 23.717-59.695 17.519-17.519 44.753-25.382 111.513-27.392l-1.928-63.97c-65.801 1.98-117.634 8.9-154.84 46.106-25.682 25.685-36.728 58.018-41.891 96.422-4.973 36.992-4.972 84.023-4.972 142.374v4.685c-0.001 58.351-0.002 105.382 4.972 142.372 5.164 38.405 16.209 70.74 41.891 96.422s58.018 36.728 96.422 41.891c36.991 4.973 84.023 4.972 142.374 4.972zM416 533.333c0-17.673-14.327-32-32-32h-128c-17.673 0-32 14.327-32 32s14.327 32 32 32h128c17.673 0 32-14.327 32-32zM842.667 320c0-17.673-14.327-32-32-32h-597.333c-17.673 0-32 14.327-32 32s14.327 32 32 32h597.333c17.673 0 32-14.327 32-32zM509.658 906.667h4.685c58.351 0.001 105.382 0.002 142.374-4.972 38.404-5.164 70.737-16.209 96.422-41.891 37.205-37.206 44.126-89.039 46.106-154.84l-63.97-1.928c-2.010 66.76-9.873 93.994-27.392 111.513-11.81 11.808-28.386 19.508-59.695 23.717-32.23 4.333-74.944 4.401-136.188 4.401s-103.959-0.068-136.187-4.401c-31.308-4.209-47.887-11.908-59.695-23.717-17.519-17.519-25.382-44.753-27.393-111.513l-63.971 1.928c1.982 65.801 8.903 117.634 46.109 154.84 25.682 25.682 58.018 36.728 96.422 41.891 36.991 4.973 84.021 4.972 142.372 4.972zM256 352c17.673 0 32-14.327 32-32v-42.667c0-61.244 0.068-103.957 4.401-136.188 4.209-31.309 11.908-47.885 23.717-59.695s28.388-19.507 59.695-23.718c32.228-4.331 74.943-4.399 136.187-4.399s103.957 0.068 136.188 4.399c31.309 4.211 47.885 11.908 59.695 23.718s19.507 28.386 23.718 59.695c4.331 32.23 4.399 74.944 4.399 136.188v42.667c0 17.673 14.327 32 32 32s32-14.327 32-32v-45.009c0-58.351 0-105.382-4.971-142.374-5.163-38.404-16.209-70.737-41.89-96.422-25.685-25.681-58.018-36.727-96.422-41.89-36.992-4.971-84.023-4.971-142.374-4.971h-4.685c-58.351 0-105.382 0-142.372 4.971-38.405 5.163-70.74 16.209-96.422 41.89-25.682 25.685-36.728 58.018-41.891 96.422-4.973 36.992-4.972 84.023-4.972 142.374v45.009c0 17.673 14.327 32 32 32zM768 533.333c0-23.565-19.102-42.667-42.667-42.667s-42.667 19.102-42.667 42.667c0 23.564 19.102 42.667 42.667 42.667s42.667-19.103 42.667-42.667z" />
<glyph unicode="&#xe902;" glyph-name="book" horiz-adv-x="838" d="M311.628 960h191.291c63.656 0.001 114.963 0.002 155.318-5.424 41.896-5.633 77.168-17.683 105.188-45.7 28.016-28.017 40.066-63.292 45.698-105.188 5.423-40.354 5.423-91.661 5.423-155.317v-377.473c0-63.656 0-114.963-5.423-155.318-5.632-41.896-17.683-77.168-45.698-105.188-28.020-28.016-63.293-40.066-105.188-45.698-40.355-5.423-91.662-5.423-155.318-5.423h-191.291c-63.655 0-114.963 0-155.317 5.423-41.896 5.632-77.171 17.683-105.188 45.698-28.016 28.020-40.067 63.293-45.7 105.188-5.425 40.355-5.425 91.662-5.424 155.318v377.473c-0.001 63.655-0.002 114.963 5.424 155.317 5.633 41.896 17.683 77.171 45.7 105.188s63.292 40.067 105.188 45.7c40.354 5.425 91.661 5.425 155.317 5.424zM165.614 885.381c-34.154-4.592-52.24-12.991-65.122-25.873s-21.281-30.969-25.873-65.122c-4.727-35.158-4.801-81.755-4.801-148.568v-372.364c0-66.811 0.074-113.408 4.801-148.568 4.592-34.155 12.991-52.238 25.873-65.122s30.969-21.281 65.122-25.875c35.158-4.724 81.756-4.799 148.568-4.799h186.182c66.811 0 113.408 0.074 148.568 4.799 34.155 4.594 52.238 12.991 65.122 25.875s21.281 30.967 25.875 65.122c4.724 35.16 4.799 81.757 4.799 148.568v372.364c0 66.812-0.074 113.409-4.799 148.568-4.594 34.154-12.991 52.24-25.875 65.122s-30.967 21.281-65.122 25.873c-35.16 4.727-81.757 4.801-148.568 4.801h-186.182c-66.812 0-113.409-0.074-148.568-4.801zM210.943 308.364c1.771 0 3.567 0 5.39 0h558.546v-69.818h-558.546c-45.534 0-61.452-0.298-73.651-3.57-36.141-9.681-64.37-37.911-74.053-74.049l-67.439 18.069c16.14 60.234 63.188 107.283 123.422 123.42 22.279 5.972 48.259 5.962 86.331 5.949zM186.182 692.364c0 19.28 15.629 34.909 34.909 34.909h372.364c19.279 0 34.909-15.629 34.909-34.909s-15.63-34.909-34.909-34.909h-372.364c-19.28 0-34.909 15.629-34.909 34.909zM186.182 529.455c0 19.28 15.629 34.909 34.909 34.909h232.727c19.279 0 34.909-15.629 34.909-34.909s-15.63-34.909-34.909-34.909h-232.727c-19.28 0-34.909 15.629-34.909 34.909zM186.182 133.818c0 19.279 15.629 34.909 34.909 34.909h535.273c19.279 0 34.909-15.63 34.909-34.909s-15.63-34.909-34.909-34.909h-535.273c-19.28 0-34.909 15.63-34.909 34.909z" />
<glyph unicode="&#xe903;" glyph-name="copy" d="M509.658 778.667h132.685c58.351 0.001 105.382 0.002 142.374-4.972 38.404-5.164 70.737-16.209 96.422-41.891 25.681-25.682 36.727-58.018 41.89-96.422 4.971-36.991 4.971-84.023 4.971-142.372v-218.018c0-58.351 0-105.382-4.971-142.374-5.163-38.404-16.209-70.737-41.89-96.422-25.685-25.681-58.018-36.727-96.422-41.89-36.992-4.971-84.023-4.971-142.374-4.971h-132.685c-58.351 0-105.382 0-142.372 4.971-38.405 5.163-70.74 16.209-96.422 41.89-25.682 25.685-36.728 58.018-41.891 96.422-4.973 36.992-4.972 84.023-4.972 142.374v218.018c-0.001 58.349-0.002 105.382 4.972 142.372 5.164 38.405 16.209 70.74 41.891 96.422s58.018 36.728 96.422 41.891c36.991 4.973 84.021 4.972 142.372 4.972zM375.813 710.266c-31.308-4.209-47.887-11.908-59.695-23.717s-19.508-28.388-23.717-59.695c-4.333-32.228-4.401-74.942-4.401-136.187v-213.333c0-61.244 0.068-103.957 4.401-136.188 4.209-31.309 11.908-47.885 23.717-59.695s28.388-19.507 59.695-23.718c32.228-4.331 74.943-4.399 136.187-4.399h128c61.244 0 103.957 0.068 136.188 4.399 31.309 4.211 47.885 11.908 59.695 23.718s19.507 28.386 23.718 59.695c4.331 32.23 4.399 74.944 4.399 136.188v213.333c0 61.245-0.068 103.959-4.399 136.187-4.211 31.308-11.908 47.887-23.718 59.695s-28.386 19.508-59.695 23.717c-32.23 4.333-74.944 4.401-136.188 4.401h-128c-61.244 0-103.959-0.068-136.187-4.401zM466.927 906.667h173.073c88.367 0 160-71.634 160-160h-64c0 53.019-42.982 96-96 96h-170.667c-81.358 0-139.157-0.068-183.004-5.963-42.927-5.771-67.658-16.594-85.715-34.651s-28.88-42.789-34.651-85.715c-5.895-43.847-5.963-101.646-5.963-183.004v-256c0-53.018 42.981-96 96-96v-64c-88.366 0-160 71.633-160 160v258.407c-0.001 78.411-0.001 140.518 6.534 189.124 6.725 50.023 20.896 90.512 52.826 122.442s72.419 46.1 122.442 52.826c48.606 6.535 110.713 6.535 189.125 6.534z" />
<glyph unicode="&#xe904;" glyph-name="dumbbell" d="M543.113 582.451l-165.548-165.547-45.255 45.252 165.546 165.549 45.257-45.255zM464.747 329.719l165.547 165.551 45.257-45.257-165.547-165.547-45.257 45.252zM239.953 501.090c-2.792 0.324-5.612 0.324-8.404 0-3.461-0.405-8.621-2.001-18.901-10.159-10.81-8.576-23.779-21.478-43.608-41.306s-32.727-32.798-41.304-43.61c-8.157-10.278-9.754-15.437-10.159-18.897-0.326-2.795-0.326-5.615 0-8.405 0.404-3.46 2.002-8.623 10.159-18.901 8.577-10.812 21.476-23.778 41.305-43.61l211.163-211.162c19.828-19.827 32.798-32.73 43.608-41.306 10.279-8.158 15.441-9.754 18.902-10.159 2.79-0.324 5.611-0.324 8.405 0 3.46 0.405 8.619 2.001 18.897 10.159 10.812 8.576 23.782 21.478 43.61 41.306s32.73 32.798 41.306 43.61c8.158 10.278 9.754 15.437 10.159 18.897 0.324 2.795 0.324 5.615 0 8.405-0.405 3.46-2.001 8.623-10.159 18.901-8.576 10.812-21.478 23.778-41.306 43.61l-211.163 211.162c-19.828 19.827-32.798 32.73-43.608 41.306-10.28 8.158-15.44 9.754-18.901 10.159zM224.125 564.657c7.724 0.902 15.528 0.902 23.253 0 20.095-2.347 36.358-11.77 51.255-23.59 14.042-11.142 29.609-26.711 47.812-44.913l213.708-213.709c18.202-18.202 33.771-33.766 44.911-47.812 11.823-14.895 21.244-31.159 23.59-51.255 0.905-7.723 0.905-15.526 0-23.253-2.347-20.092-11.767-36.356-23.59-51.255-11.14-14.042-26.709-29.611-44.911-47.812l-2.547-2.543c-18.202-18.202-33.766-33.771-47.808-44.911-14.899-11.823-31.164-21.244-51.255-23.59-7.727-0.905-15.531-0.905-23.253 0-20.096 2.347-36.359 11.767-51.257 23.59-14.042 11.14-29.609 26.709-47.812 44.911l-213.707 213.709c-18.204 18.202-33.772 33.766-44.914 47.812-11.821 14.895-21.243 31.159-23.59 51.255-0.902 7.723-0.902 15.526 0 23.253 2.347 20.092 11.77 36.356 23.59 51.255 11.142 14.042 26.71 29.606 44.913 47.812 0.423 0.422 0.847 0.845 1.272 1.271 0.425 0.422 0.849 0.849 1.272 1.271 18.202 18.202 33.769 33.771 47.812 44.913 14.898 11.821 31.161 21.243 51.256 23.59zM581.286 842.422c-2.79 0.326-5.611 0.326-8.405 0-3.46-0.404-8.619-2.002-18.897-10.159-10.812-8.577-23.782-21.476-43.61-41.304s-32.73-32.798-41.306-43.608c-8.158-10.281-9.754-15.44-10.159-18.901-0.324-2.792-0.324-5.612 0-8.404 0.405-3.461 2.001-8.621 10.159-18.901 8.576-10.81 21.478-23.78 41.306-43.608l211.162-211.163c19.831-19.827 32.798-32.73 43.61-41.306 10.278-8.158 15.441-9.754 18.901-10.159 2.79-0.324 5.611-0.324 8.405 0 3.46 0.405 8.619 2.001 18.897 10.159 10.812 8.576 23.782 21.478 43.61 41.306s32.73 32.798 41.306 43.61c8.158 10.278 9.754 15.437 10.159 18.897 0.324 2.795 0.324 5.615 0 8.405-0.405 3.46-2.001 8.623-10.159 18.902-8.576 10.81-21.478 23.78-41.306 43.608l-211.162 211.163c-19.831 19.828-32.798 32.727-43.61 41.304-10.278 8.157-15.441 9.754-18.901 10.159zM565.457 905.99c7.727 0.902 15.531 0.902 23.253 0 20.096-2.347 36.361-11.77 51.255-23.59 14.046-11.142 29.611-26.71 47.812-44.913l213.709-213.707c18.202-18.202 33.771-33.769 44.911-47.812 11.823-14.898 21.244-31.161 23.59-51.257 0.905-7.723 0.905-15.526 0-23.253-2.347-20.092-11.767-36.356-23.59-51.255-11.14-14.042-26.709-29.611-44.911-47.812l-2.547-2.543c-18.202-18.202-33.766-33.771-47.808-44.911-14.899-11.823-31.164-21.244-51.255-23.59-7.727-0.905-15.531-0.905-23.253 0-20.096 2.347-36.361 11.767-51.255 23.59-14.046 11.14-29.611 26.709-47.812 44.911l-213.709 213.708c-18.202 18.202-33.771 33.769-44.913 47.812-11.821 14.898-21.243 31.161-23.59 51.255-0.902 7.725-0.902 15.529 0 23.253 2.347 20.095 11.77 36.358 23.59 51.256 11.142 14.042 26.711 29.609 44.913 47.812 0.422 0.422 0.849 0.847 1.271 1.272 0.427 0.425 0.849 0.849 1.271 1.272 18.206 18.204 33.771 33.772 47.812 44.913 14.899 11.821 31.164 21.243 51.255 23.59zM746.176 876.034c12.497 12.497 32.755 12.497 45.252 0l132.437-132.438c12.497-12.497 12.497-32.758 0-45.255s-32.755-12.497-45.252 0l-132.437 132.438c-12.497 12.497-12.497 32.758 0 45.255zM83.935 213.85c12.497 12.497 32.758 12.497 45.255 0l132.438-132.437c12.497-12.497 12.497-32.755 0-45.252s-32.758-12.497-45.255 0l-132.438 132.437c-12.497 12.497-12.497 32.755 0 45.252z" />
<glyph unicode="&#xe905;" glyph-name="signpost" horiz-adv-x="977" d="M468.34 960c19.279 0 34.909-15.629 34.909-34.909v-46.545h-69.818v46.545c0 19.28 15.629 34.909 34.909 34.909zM468.34 541.091c19.279 0 34.909-15.629 34.909-34.909v-46.545h-69.818v46.545c0 19.28 15.629 34.909 34.909 34.909zM468.34 122.182c19.279 0 34.909-15.63 34.909-34.909v-93.091h-69.818v93.091c0 19.279 15.629 34.909 34.909 34.909zM217.292 890.184c1.496-0.001 3.010-0.002 4.543-0.002h504.292c31.162 0.001 57.172 0.001 78.224-2.14 22.039-2.242 42.487-7.116 60.919-19.432 13.978-9.338 25.977-21.339 35.314-35.315 12.316-18.432 17.194-38.882 19.433-60.921 2.141-21.054 2.141-47.061 2.141-78.227v-3.567c0-31.166 0-57.173-2.141-78.227-2.239-22.038-7.117-42.489-19.433-60.92-9.337-13.977-21.336-25.977-35.314-35.315-18.432-12.315-38.879-17.19-60.919-19.431-21.053-2.14-47.062-2.14-78.229-2.14h-504.287c-1.533 0-3.047 0-4.543-0.005-26.16-0.019-46.787-0.033-66.214 6.289-8.519 2.773-16.723 6.432-24.478 10.918-17.685 10.23-31.454 25.588-48.918 45.066-0.998 1.114-2.009 2.241-3.033 3.382l-1.117 1.244c-18.848 20.988-34.651 38.586-46.156 54.202-12.090 16.41-21.516 33.302-25.241 53.438-2.847 15.392-2.847 31.175 0 46.567 3.725 20.136 13.151 37.028 25.241 53.437 11.505 15.616 27.308 33.214 46.156 54.203 0.371 0.413 0.743 0.827 1.117 1.243 1.024 1.14 2.035 2.268 3.034 3.382 17.463 19.478 31.232 34.836 48.917 45.066 7.754 4.486 15.959 8.145 24.478 10.918 19.428 6.323 40.054 6.307 66.214 6.287zM221.836 820.363c-32.874 0-41.601-0.4-49.149-2.856-3.872-1.26-7.601-2.924-11.126-4.963-6.871-3.975-13-10.201-34.963-34.661-20.256-22.558-33.753-37.645-43.011-50.212-8.9-12.080-11.756-19.095-12.798-24.725-1.294-6.996-1.294-14.171 0-21.167 1.042-5.63 3.898-12.645 12.798-24.725 9.258-12.566 22.755-27.654 43.011-50.211 21.963-24.459 28.093-30.686 34.963-34.661 3.525-2.039 7.254-3.702 11.126-4.963 7.548-2.457 16.276-2.857 49.149-2.857h502.505c33.41 0 55.845 0.042 72.946 1.782 16.514 1.68 24.148 4.65 29.198 8.024 6.353 4.244 11.804 9.699 16.049 16.052 3.375 5.048 6.344 12.68 8.024 29.197 1.741 17.101 1.783 39.532 1.783 72.945s-0.042 55.844-1.783 72.945c-1.68 16.518-4.65 24.15-8.024 29.197-4.245 6.353-9.695 11.807-16.049 16.052-5.050 3.373-12.684 6.343-29.198 8.024-17.101 1.74-39.536 1.782-72.946 1.782h-502.505zM763.997 398.597c-7.55 2.458-16.277 2.858-49.152 2.858h-502.504c-33.412 0-55.843-0.042-72.945-1.783-16.518-1.68-24.15-4.65-29.197-8.024-6.353-4.245-11.808-9.7-16.052-16.049-3.373-5.050-6.344-12.684-8.024-29.198-1.739-17.101-1.782-39.536-1.782-72.946s0.042-55.845 1.782-72.946c1.68-16.514 4.651-24.148 8.024-29.198 4.244-6.353 9.699-11.804 16.052-16.049 5.048-3.375 12.68-6.344 29.197-8.024 17.101-1.741 39.532-1.783 72.945-1.783h502.504c32.875 0 41.602 0.4 49.152 2.858 3.868 1.257 7.601 2.923 11.124 4.962 6.87 3.975 13 10.203 34.965 34.658 20.252 22.561 33.75 37.646 43.008 50.213 8.899 12.079 11.757 19.098 12.8 24.725 1.294 6.996 1.294 14.173 0 21.169-1.043 5.627-3.901 12.642-12.8 24.725-9.258 12.563-22.756 27.653-43.008 50.209-21.965 24.46-28.095 30.687-34.965 34.662-3.523 2.039-7.256 3.7-11.124 4.962zM719.388 471.273c26.163 0.023 46.787 0.037 66.216-6.284 8.518-2.774 16.724-6.433 24.478-10.92 17.683-10.231 31.455-25.586 48.915-45.065 1.001-1.112 2.011-2.243 3.035-3.384l1.117-1.243c18.846-20.987 34.653-38.586 46.154-54.202 12.093-16.407 21.518-33.303 25.242-53.439 2.849-15.393 2.849-31.176 0-46.564-3.724-20.14-13.149-37.032-25.242-53.439-11.501-15.616-27.304-33.215-46.15-54.202l-1.122-1.243c-1.024-1.14-2.034-2.271-3.030-3.384-17.464-19.479-31.237-34.835-48.919-45.065-7.754-4.487-15.96-8.145-24.478-10.92-19.428-6.321-40.052-6.307-66.216-6.288-1.494 0.005-3.007 0.005-4.543 0.005h-504.289c-31.166 0-57.172 0-78.226 2.141-22.038 2.239-42.489 7.117-60.92 19.433-13.977 9.337-25.977 21.336-35.315 35.314-12.316 18.432-17.19 38.879-19.432 60.919-2.142 21.053-2.141 47.062-2.14 78.224v3.57c-0.001 31.167-0.001 57.172 2.14 78.229 2.242 22.035 7.116 42.487 19.432 60.919 9.339 13.978 21.339 25.977 35.315 35.314 18.432 12.316 38.882 17.189 60.92 19.433 21.054 2.141 47.060 2.141 78.226 2.141h504.289c1.536 0 3.049 0 4.543 0zM340.341-5.818c0 19.279 15.629 34.909 34.909 34.909h186.181c19.279 0 34.909-15.63 34.909-34.909s-15.63-34.909-34.909-34.909h-186.181c-19.28 0-34.909 15.63-34.909 34.909z" />
<glyph unicode="&#xe906;" glyph-name="sms" d="M424.259 821.333h175.48c78.413 0.001 140.518 0.001 189.124-6.534 50.022-6.725 90.513-20.896 122.445-52.826 31.927-31.93 46.097-72.419 52.826-122.442 6.532-48.606 6.532-110.712 6.532-189.125v-4.813c0-78.413 0-140.518-6.532-189.124-6.729-50.022-20.898-90.513-52.826-122.445-31.932-31.927-72.422-46.097-122.445-52.826-48.606-6.532-110.711-6.532-189.124-6.532h-175.48c-78.411 0-140.518 0-189.125 6.532-50.023 6.729-90.512 20.898-122.442 52.826-31.93 31.932-46.1 72.422-52.826 122.445-6.535 48.606-6.535 110.711-6.534 189.124v4.813c-0.001 78.413-0.001 140.519 6.534 189.125 6.725 50.023 20.896 90.512 52.826 122.442s72.419 46.1 122.442 52.826c48.606 6.535 110.713 6.535 189.124 6.534zM243.663 751.37c-42.927-5.771-67.658-16.594-85.715-34.651s-28.88-42.789-34.651-85.715c-5.895-43.847-5.963-101.647-5.963-183.004s0.068-139.157 5.963-183.006c5.771-42.923 16.594-67.657 34.651-85.713s42.789-28.881 85.715-34.65c43.847-5.897 101.646-5.965 183.004-5.965h170.667c81.357 0 139.157 0.068 183.006 5.965 42.923 5.769 67.657 16.593 85.713 34.65s28.881 42.79 34.65 85.713c5.897 43.849 5.965 101.649 5.965 183.006s-0.068 139.157-5.965 183.004c-5.769 42.927-16.593 67.658-34.65 85.715s-42.79 28.88-85.713 34.651c-43.849 5.895-101.649 5.963-183.006 5.963h-170.667c-81.358 0-139.157-0.068-183.004-5.963zM792.585 639.153c11.315-13.577 9.481-33.755-4.096-45.069l-93.717-78.099c-37.82-31.514-68.471-57.058-95.526-74.458-28.181-18.125-55.625-29.577-87.245-29.577s-59.063 11.452-87.245 29.577c-27.054 17.399-57.705 42.944-95.523 74.458l-93.717 78.099c-13.577 11.314-15.411 31.492-4.097 45.069s31.492 15.411 45.069 4.097l92.113-76.761c39.806-33.173 67.441-56.128 90.775-71.134 22.588-14.528 37.901-19.405 52.625-19.405s30.042 4.877 52.625 19.405c23.334 15.006 50.97 37.961 90.778 71.134l92.113 76.761c13.577 11.314 33.754 9.48 45.069-4.097z" />
<glyph unicode="&#xe907;" glyph-name="download-file" d="M534.831 880.138c-24.762 9.502-52.545 10.041-126.171 10.041-89.213 0-152.624-0.074-200.701-6.508-47.099-6.304-74.162-18.128-93.833-37.799-19.699-19.699-31.506-46.679-37.801-93.507-6.431-47.833-6.505-110.887-6.505-199.64v-186.184c0-88.753 0.074-151.803 6.505-199.638 6.296-46.829 18.103-73.807 37.801-93.505 19.699-19.703 46.679-31.507 93.507-37.804 47.833-6.433 110.887-6.507 199.64-6.507h186.182c88.753 0 151.808 0.074 199.643 6.507 46.825 6.298 73.807 18.102 93.505 37.804 19.698 19.698 31.507 46.676 37.8 93.505 6.433 47.835 6.507 110.885 6.507 199.638v20.35c0 84.75-0.703 116.661-13.084 144.46s-35.631 49.67-98.625 106.366l-184.264 165.837c-54.444 49.001-75.334 67.081-100.105 76.585zM415.44 959.999c64.449 0.017 106.084 0.028 144.404-14.677s69.134-42.449 116.801-85.373c1.643-1.482 3.309-2.982 4.999-4.5l184.259-165.836c1.964-1.765 3.901-3.509 5.814-5.23 55.096-49.555 90.722-81.598 109.885-124.627s19.149-90.944 19.126-165.045c0-2.574 0-5.181 0-7.82v-22.975c0-85.537 0-153.293-7.126-206.317-7.34-54.57-22.798-98.737-57.628-133.571-34.835-34.835-79.006-50.292-133.576-57.628-53.025-7.131-120.776-7.131-206.317-7.131h-191.433c-85.539 0-153.293 0-206.318 7.131-54.571 7.336-98.74 22.793-133.573 57.628s-50.291 79.002-57.628 133.571c-7.129 53.025-7.128 120.781-7.128 206.317v191.435c-0.001 85.539-0.001 153.292 7.128 206.317 7.337 54.571 22.795 98.74 57.628 133.573 34.86 34.86 79.178 50.302 133.941 57.631 53.246 7.126 121.336 7.126 207.344 7.125h2.619c2.288 0 4.548 0.001 6.78 0.001zM512 901.815h69.818v-116.364c0-55.841 0.074-94.21 3.947-123.031 3.742-27.816 10.435-41.456 19.912-50.93 9.472-9.474 23.11-16.168 50.93-19.908 28.821-3.875 67.188-3.949 123.029-3.949h186.182v-69.818h-188.681c-52.727-0.001-95.818-0.002-129.834 4.572-35.561 4.781-66.388 15.127-90.996 39.735s-34.956 55.437-39.736 90.995c-4.571 34.019-4.571 77.107-4.571 129.835v118.863zM313.579 131.621c13.428-12.591 34.323-12.591 47.751 0l93.091 87.273c14.063 13.186 14.78 35.277 1.592 49.343-13.186 14.066-35.278 14.778-49.343 1.592l-34.306-32.163v152.148c0 19.284-15.629 34.909-34.909 34.909s-34.909-15.625-34.909-34.909v-152.148l-34.306 32.163c-14.066 13.186-36.157 12.474-49.343-1.592s-12.474-36.157 1.592-49.343l93.091-87.273z" />
<glyph unicode="&#xe908;" glyph-name="t-shirt" horiz-adv-x="931" d="M178.627 942.383c30.674 17.971 66.38 21.874 99.492 13.165l22.811-6c26.897-7.074 49.858-24.315 64.734-47.79 42.257-66.683 134.052-66.683 176.306 0 14.876 23.474 37.837 40.715 64.735 47.79l22.812 6c33.112 8.709 68.817 4.806 99.491-13.165 23.938-14.024 56.818-34.342 80.873-53.623 7.098-5.689 14.266-11.955 21.313-18.467l1.89-1.743c20.182-18.647 38.391-35.47 51.079-51.901 14.345-18.574 23.617-39.009 23.473-64.726-0.154-26.61-11.036-47.66-26.456-66.566-14.024-17.188-34.155-35.338-57.135-56.054l-10.496-9.465c-25.228-22.75-29.556-27.617-31.963-33.117-2.504-5.731-3.193-12.841-3.193-47.747v-373.123c0.005-28.928 0.005-54.109-2.946-75.208-3.235-23.124-10.254-43.748-25.577-62.929-29.142-36.487-66.499-43.306-110.787-51.391-1.978-0.363-3.975-0.726-5.981-1.094-48.021-8.834-108.632-15.956-179.284-15.956-70.649 0-131.263 7.121-179.282 15.956-2.009 0.368-4.004 0.731-5.985 1.094-44.284 8.085-81.642 14.904-110.784 51.391-15.325 19.181-22.343 39.806-25.578 62.929-2.952 21.099-2.95 46.28-2.948 75.208v373.123c0 34.906-0.687 42.016-3.193 47.747-2.404 5.5-6.735 10.368-31.963 33.117l-8.624 7.776c-0.627 0.565-1.252 1.128-1.874 1.69-22.977 20.716-43.108 38.866-57.129 56.053-15.424 18.906-26.304 39.956-26.457 66.566-0.148 25.716 9.125 46.151 23.47 64.726 12.69 16.431 30.899 33.254 51.082 51.901 0.627 0.579 1.256 1.16 1.886 1.743 7.047 6.512 14.215 12.778 21.313 18.467 24.056 19.281 56.939 39.6 80.875 53.623zM260.36 888.026c-16.214 4.264-32.693 2.17-46.439-5.883-23.535-13.789-52.675-31.969-72.502-47.861-5.531-4.433-11.44-9.578-17.594-15.266-22.672-20.952-36.425-33.815-45.097-45.044-7.411-9.595-8.947-15.277-8.91-21.646 0.032-5.477 1.535-11.552 10.739-22.834 10.226-12.535 26.252-27.116 51.66-50.027l8.624-7.777c1.293-1.166 2.578-2.321 3.853-3.467 19.152-17.214 36.113-32.458 45.326-53.532 9.119-20.857 9.084-43.888 9.044-70.377-0.002-1.764-0.005-3.543-0.005-5.338v-370.94c0-31.739 0.078-52.015 2.275-67.719 1.988-14.206 5.417-22.058 10.985-29.030 11.341-14.196 21.871-17.645 74.847-27.392 44.318-8.15 100.687-14.801 166.651-14.801s122.335 6.651 166.651 14.801c52.978 9.747 63.507 13.196 74.845 27.392 5.571 6.973 8.997 14.825 10.989 29.030 2.197 15.704 2.271 35.98 2.271 67.719v370.94c0 1.795 0 3.574-0.005 5.337-0.037 26.489-0.074 49.52 9.044 70.377 9.216 21.074 26.177 36.318 45.326 53.533 1.275 1.146 2.56 2.301 3.854 3.467l8.625 7.777c25.409 22.912 41.435 37.492 51.661 50.027 9.202 11.282 10.705 17.357 10.738 22.834 0.037 6.37-1.499 12.052-8.909 21.646-8.676 11.229-22.426 24.092-45.098 45.044-6.153 5.687-12.065 10.833-17.594 15.266-19.828 15.892-48.966 34.072-72.504 47.861-13.745 8.054-30.222 10.148-46.438 5.883l-22.812-5.999c-9.23-2.428-17.734-8.515-23.515-17.64-69.674-109.945-224.586-109.945-294.258 0-5.782 9.125-14.287 15.212-23.518 17.64l-22.811 5.999z" />
<glyph unicode="&#xe909;" glyph-name="routing" d="M309.333 746.667c0 17.673 14.327 32 32 32h362.667c100.147 0 181.333-81.186 181.333-181.333s-81.186-181.333-181.333-181.333h-384c-64.801 0-117.333-52.531-117.333-117.333s52.532-117.333 117.333-117.333h456.077l-30.703 30.707c-12.497 12.497-12.497 32.755 0 45.252s32.755 12.497 45.252 0l85.333-85.333c12.497-12.497 12.497-32.755 0-45.252l-85.333-85.333c-12.497-12.497-32.755-12.497-45.252 0s-12.497 32.755 0 45.252l30.703 30.707h-456.077c-100.148 0-181.333 81.186-181.333 181.333s81.186 181.333 181.333 181.333h384c64.802 0 117.333 52.531 117.333 117.333s-52.531 117.333-117.333 117.333h-362.667c-17.673 0-32 14.327-32 32zM256 800c-29.455 0-53.333-23.878-53.333-53.333s23.878-53.333 53.333-53.333c29.455 0 53.333 23.878 53.333 53.333s-23.878 53.333-53.333 53.333zM138.667 746.667c0 64.801 52.532 117.333 117.333 117.333s117.333-52.532 117.333-117.333c0-64.801-52.532-117.333-117.333-117.333s-117.333 52.532-117.333 117.333z" />
<glyph unicode="&#xe90a;" glyph-name="iphone" horiz-adv-x="838" d="M404.647 960h5.252c85.54 0.001 153.292 0.001 206.316-7.128 54.57-7.337 98.742-22.795 133.576-57.628 34.83-34.833 50.288-79.003 57.628-133.573 7.126-53.025 7.126-120.778 7.126-206.318v-191.433c0-85.541 0-153.293-7.126-206.317-7.34-54.57-22.798-98.742-57.628-133.576-34.835-34.83-79.006-50.288-133.576-57.628-53.025-7.126-120.776-7.126-206.317-7.126h-5.251c-85.539 0-153.293 0-206.318 7.126-54.571 7.34-98.74 22.798-133.573 57.628-34.833 34.835-50.291 79.006-57.628 133.576-7.129 53.025-7.128 120.776-7.128 206.317v191.433c-0.001 85.539-0.001 153.292 7.128 206.317 7.337 54.571 22.795 98.74 57.628 133.573s79.003 50.291 133.573 57.628c53.025 7.129 120.778 7.128 206.317 7.128zM207.632 883.677c-46.829-6.296-73.809-18.103-93.507-37.801s-31.506-46.679-37.801-93.507c-6.431-47.833-6.505-110.887-6.505-199.64v-186.182c0-88.753 0.074-151.808 6.505-199.643 6.296-46.825 18.103-73.807 37.801-93.505s46.679-31.507 93.507-37.8c47.833-6.433 110.887-6.507 199.64-6.507s151.808 0.074 199.643 6.507c46.825 6.293 73.807 18.102 93.505 37.8s31.507 46.68 37.8 93.505c6.433 47.835 6.507 110.89 6.507 199.643v186.182c0 88.754-0.074 151.808-6.507 199.64-6.293 46.829-18.102 73.809-37.8 93.507s-46.68 31.506-93.505 37.801c-47.835 6.431-110.89 6.505-199.643 6.505s-151.808-0.074-199.64-6.505zM232.727 133.818c0 19.279 15.629 34.909 34.909 34.909h279.273c19.279 0 34.909-15.63 34.909-34.909s-15.63-34.909-34.909-34.909h-279.273c-19.28 0-34.909 15.63-34.909 34.909zM166.901 936.557c16.042 10.694 37.716 6.36 48.411-9.682l3.915-5.872c36.983-55.475 50.108-73.829 67.866-84.864v0c3.833-2.382 7.816-4.513 11.924-6.381 19.033-8.655 41.584-9.394 108.257-9.394s89.223 0.739 108.255 9.394c4.11 1.868 8.094 3.999 11.925 6.381 17.757 11.035 30.883 29.39 67.868 84.864l3.914 5.873c10.691 16.042 32.368 20.377 48.407 9.682 16.044-10.694 20.378-32.369 9.686-48.41l-3.919-5.873c-1.396-2.099-2.779-4.17-4.138-6.214-31.13-46.746-52.736-79.194-84.969-99.223v0c-6.386-3.969-13.028-7.522-19.87-10.635-34.546-15.709-73.533-15.689-129.693-15.659-2.456 0.001-4.945 0.002-7.467 0.002s-5.011-0.001-7.467-0.002c-56.162-0.029-95.146-0.050-129.691 15.659-6.846 3.113-13.484 6.666-19.872 10.635-32.233 20.029-53.84 52.477-84.969 99.223-1.361 2.044-2.741 4.116-4.14 6.215l-3.915 5.873c-10.694 16.041-6.36 37.716 9.682 48.41z" />
<glyph unicode="&#xe90b;" glyph-name="phone" d="M244.592 872.832c51.939 51.645 137.46 42.452 180.95-15.642l53.801-71.868c35.388-47.27 32.265-113.335-9.741-155.102l-10.185-10.129c-0.448-1.293-1.527-5.355-0.329-13.076 2.697-17.387 17.216-54.268 78.165-114.872 60.928-60.582 98.074-75.085 115.703-77.79 7.991-1.229 12.173-0.085 13.466 0.367l17.408 17.31c37.342 37.129 94.724 44.070 140.958 18.935l81.515-44.314c69.803-37.943 87.437-132.821 30.251-189.683l-60.612-60.267c-19.093-18.987-44.774-34.82-76.117-37.743-77.184-7.194-257.165 1.988-446.266 190.016-176.551 175.548-210.431 328.636-214.717 404.064-2.168 38.14 15.855 70.409 38.781 93.204l66.97 66.589zM374.308 818.835c-21.616 28.874-61.905 31.17-84.591 8.614l-66.97-66.589c-14.077-13.997-20.849-29.422-20.010-44.19 3.406-59.93 30.768-198.069 195.947-362.31 173.288-172.305 333.339-177.442 395.201-171.678 12.638 1.178 25.207 7.744 36.932 19.405l60.608 60.267c24.64 24.499 19.204 69.103-15.689 88.073l-81.515 44.314c-22.507 12.233-48.879 8.196-65.263-8.094l-19.435-19.324-22.562 22.694c22.562-22.694 22.502-22.754 22.502-22.754l-0.064-0.060-0.128-0.128-0.277-0.269-0.627-0.58c-0.448-0.41-0.96-0.858-1.54-1.335-1.156-0.96-2.586-2.048-4.288-3.191-3.418-2.287-7.927-4.774-13.594-6.886-11.558-4.305-26.795-6.618-45.692-3.721-36.983 5.675-85.973 30.886-151.125 95.667-65.131 64.759-90.557 113.526-96.284 150.445-2.929 18.878-0.593 34.123 3.765 45.688 2.135 5.668 4.652 10.175 6.961 13.583 1.152 1.7 2.248 3.121 3.215 4.276 0.484 0.577 0.936 1.088 1.347 1.535l0.586 0.623 0.268 0.276 0.128 0.129 0.062 0.062c0 0 0.061 0.061 22.624-22.631l-22.563 22.692 12.237 12.168c18.287 18.183 20.847 48.367 3.631 71.364l-53.801 71.868z" />
<glyph unicode="&#xe90c;" glyph-name="security" d="M512 842.667c-28.062 0-55.676-9.030-124.56-32.61l-24.44-8.366c-64.537-22.092-111.603-38.216-144.649-51.64-16.495-6.701-28.445-12.316-36.834-17.188-4.142-2.405-6.995-4.39-8.901-5.939-1.616-1.313-2.232-2.057-2.32-2.166-0.082-0.134-0.613-1.020-1.359-3.117-0.853-2.394-1.798-5.826-2.719-10.604-1.863-9.67-3.276-22.953-4.251-40.869-1.954-35.891-1.966-85.991-1.966-154.615v-67.187c0-220.804 165.116-329.476 275.149-377.54 15.851-6.925 25.003-10.842 35.191-13.449 9.732-2.492 21.606-4.045 41.66-4.045s31.927 1.553 41.66 4.045c10.189 2.607 19.341 6.524 35.191 13.449 110.033 48.064 275.149 156.736 275.149 377.54v67.187c0 68.624-0.013 118.724-1.967 154.615-0.973 17.916-2.385 31.199-4.25 40.869-0.922 4.777-1.865 8.209-2.718 10.604-0.747 2.098-1.28 2.984-1.361 3.117-0.090 0.109-0.704 0.853-2.321 2.165-1.903 1.549-4.757 3.534-8.9 5.939-8.388 4.872-20.339 10.487-36.834 17.188-33.045 13.425-80.111 29.549-144.649 51.64l-24.439 8.366c-68.885 23.58-96.499 32.61-124.561 32.61zM372.198 872.486c61.607 21.1 99.802 34.181 139.802 34.181s78.195-13.081 139.802-34.181c1.809-0.619 3.635-1.245 5.487-1.878l25.549-8.746c63.206-21.635 111.983-38.331 146.901-52.517 17.587-7.145 32.708-14.066 44.885-21.138 11.721-6.805 23.475-15.293 31.462-26.672 7.893-11.248 11.977-25.075 14.541-38.386 2.667-13.839 4.275-30.439 5.312-49.499 2.061-37.847 2.061-89.696 2.061-156.947v-68.335c0-260.309-196.608-385.114-313.527-436.19l-1.156-0.503c-14.498-6.336-28.126-12.288-43.785-16.299-16.533-4.233-34.095-6.042-57.532-6.042s-40.998 1.809-57.532 6.042c-15.659 4.011-29.285 9.963-43.783 16.299l-1.156 0.503c-116.919 51.076-313.529 175.881-313.529 436.19v68.331c0 67.253 0 119.104 2.061 156.951 1.038 19.060 2.646 35.661 5.312 49.499 2.565 13.311 6.647 27.139 14.542 38.386 7.987 11.379 19.742 19.867 31.46 26.672 12.177 7.072 27.298 13.993 44.887 21.138 34.917 14.185 83.695 30.882 146.898 52.516l25.552 8.747c1.849 0.633 3.677 1.259 5.485 1.878zM639.979 557.203c13.184-11.771 14.327-31.998 2.56-45.182l-152.384-170.667c-6.071-6.801-14.754-10.688-23.868-10.688-9.118 0-17.801 3.887-23.872 10.688l-60.951 68.267c-11.77 13.184-10.625 33.412 2.558 45.18 13.183 11.772 33.412 10.628 45.184-2.556l37.082-41.532 128.512 143.932c11.767 13.183 31.996 14.328 45.18 2.558z" />
<glyph unicode="&#xe90d;" glyph-name="case-round" d="M96 446.844v1.156h64c0-80.943 0.035-160.811 6.859-226.637 3.406-32.853 8.39-60.911 15.385-83.106 7.139-22.647 15.415-36.053 23.251-43.021 21.102-18.756 50.256-29.982 99.626-35.883 49.941-5.965 115.563-6.020 206.879-6.020s156.937 0.055 206.878 6.020c49.37 5.901 78.524 17.126 99.627 35.883 7.838 6.967 16.111 20.373 23.253 43.021 6.993 22.195 11.977 50.253 15.381 83.106 6.827 65.826 6.861 145.694 6.861 226.637h64v-1.156c0-79.607 0-162.62-7.202-232.077-3.622-34.953-9.182-67.772-18.001-95.748-8.678-27.529-21.491-53.589-41.771-71.616-35.136-31.228-79.356-44.996-134.554-51.597-54.182-6.473-123.627-6.473-212.288-6.473h-4.369c-88.66 0-158.106 0-212.289 6.473-55.199 6.601-99.418 20.369-134.551 51.597-20.282 18.027-33.094 44.087-41.771 71.616-8.82 27.977-14.381 60.796-18.005 95.748-7.2 69.457-7.2 152.469-7.2 232.077zM289.083 736h445.833c34.829 0 62.921 0 85.666-1.866 23.424-1.921 43.989-5.981 63.006-15.719 29.879-15.3 54.191-39.611 69.491-69.491 9.741-19.017 13.798-39.585 15.718-63.006 1.869-22.746 1.869-50.84 1.869-85.669v-1.378c0-1.22 0.004-2.449 0.004-3.682 0.043-14.426 0.090-29.786-5.483-43.516-4.783-11.789-12.501-22.161-22.421-30.131-11.55-9.284-26.274-13.653-40.102-17.758-1.186-0.354-2.364-0.704-3.533-1.054l-264.431-79.33-18.389 61.303 264.431 79.33c9.19 2.756 14.502 4.369 18.398 5.841 2.385 0.905 3.337 1.438 3.584 1.591 1.382 1.122 2.462 2.573 3.136 4.215 0.077 0.282 0.316 1.344 0.495 3.891 0.29 4.151 0.311 9.702 0.311 19.298 0 36.53-0.026 61.993-1.651 81.814-1.596 19.445-4.57 30.612-8.9 39.069-9.182 17.928-23.765 32.515-41.694 41.695-8.457 4.331-19.627 7.305-39.070 8.9-19.823 1.626-45.286 1.651-81.813 1.651h-443.080c-36.528 0-61.991-0.025-81.812-1.651-19.445-1.595-30.612-4.569-39.069-8.9-17.928-9.18-32.515-23.767-41.695-41.695-4.331-8.457-7.305-19.624-8.9-39.069-1.626-19.821-1.651-45.284-1.651-81.814 0-9.596 0.018-15.147 0.312-19.298 0.18-2.547 0.416-3.61 0.492-3.891 0.678-1.643 1.757-3.093 3.138-4.215 0.247-0.154 1.198-0.687 3.584-1.591 3.894-1.472 9.206-3.085 18.397-5.841l264.432-79.33-18.39-61.303-264.432 79.33c-1.169 0.35-2.347 0.7-3.532 1.054-13.828 4.105-28.552 8.474-40.103 17.758-9.919 7.97-17.636 18.342-22.42 30.131-5.571 13.73-5.527 29.090-5.485 43.516 0.004 1.233 0.007 2.462 0.007 3.682v1.378c0 34.83 0 62.923 1.866 85.669 1.921 23.421 5.981 43.989 15.719 63.005 15.3 29.88 39.611 54.191 69.492 69.492 19.017 9.737 39.584 13.798 63.005 15.719 22.746 1.866 50.839 1.866 85.669 1.866zM121.204 471.514c0.002 0 0.033-0.021 0.070-0.047zM118.161 475.601c0 0-0.012 0.034-0.025 0.081zM905.835 475.601c0 0 0.013 0.043 0.026 0.081zM902.793 471.514c0.004 0-0.026-0.021-0.068-0.047zM373.333 405.333c0 29.457 23.878 53.333 53.333 53.333h170.667c29.457 0 53.333-23.876 53.333-53.333v-92.224c0-21.807-13.278-41.421-33.527-49.519l-29.871-11.947c-48.316-19.328-102.221-19.328-150.537 0l-29.873 11.947c-20.248 8.098-33.526 27.712-33.526 49.519v92.224zM437.333 394.667v-74.334l23.168-9.267c33.058-13.227 69.939-13.227 102.997 0l23.168 9.267v74.334h-149.333zM593.374 323.012l-0.017-0.004zM512.009 842.667c-41.749 0-77.35-26.668-90.545-63.997-5.89-16.663-24.172-25.397-40.835-19.507s-25.397 24.172-19.507 40.835c21.949 62.1 81.174 106.67 150.887 106.67 69.717 0 128.939-44.569 150.886-106.67 5.892-16.663-2.842-34.945-19.507-40.835-16.661-5.89-34.944 2.844-40.832 19.507-13.197 37.329-48.798 63.997-90.547 63.997z" />
<glyph unicode="&#xe90e;" glyph-name="cosmetic" d="M437.333 512c0 147.276 119.39 266.667 266.667 266.667s266.667-119.391 266.667-266.667c0-147.277-119.39-266.667-266.667-266.667s-266.667 119.39-266.667 266.667zM704 714.667c-111.932 0-202.667-90.737-202.667-202.667 0-111.932 90.735-202.667 202.667-202.667s202.667 90.735 202.667 202.667c0 111.93-90.735 202.667-202.667 202.667zM704 309.333c17.673 0 32-14.327 32-32v-138.667h96c17.673 0 32-14.327 32-32s-14.327-32-32-32h-256c-17.673 0-32 14.327-32 32s14.327 32 32 32h96v138.667c0 17.673 14.327 32 32 32zM53.333 490.667c0 17.673 14.327 32 32 32h256c17.673 0 32-14.327 32-32v-256c0-88.367-71.634-160-160-160s-160 71.633-160 160v256zM117.333 458.667v-224c0-53.018 42.981-96 96-96s96 42.982 96 96v224h-192zM222.608 787.081c49.646 24.823 108.058-11.278 108.058-66.784v-261.631h-234.667v218.964c0 28.282 15.979 54.136 41.275 66.784l85.333 42.667zM266.667 720.297c0 7.93-8.345 13.087-15.437 9.541l-85.333-42.667c-3.614-1.807-5.897-5.5-5.897-9.541v-154.964h106.667v197.631z" />
<glyph unicode="&#xe90f;" glyph-name="location" horiz-adv-x="838" d="M0 546.058c0 228.027 181.76 413.942 407.273 413.942s407.273-185.915 407.273-413.942c0-110.085-31.372-228.287-86.835-330.408-55.389-101.99-136.322-190.618-237.563-237.94-52.593-24.581-113.155-24.581-165.749 0-101.242 47.323-182.173 135.95-237.565 237.94-55.46 102.121-86.833 220.323-86.833 330.408zM407.273 890.182c-185.789 0-337.455-153.483-337.455-344.124 0-97.611 28.050-204.433 78.369-297.086 50.387-92.774 121.592-168.662 205.775-208.012 33.857-15.825 72.765-15.825 106.622 0 84.184 39.35 155.39 115.237 205.775 208.012 50.32 92.653 78.369 199.475 78.369 297.086 0 190.641-151.664 344.124-337.455 344.124zM407.273 657.455c-57.839 0-104.727-46.888-104.727-104.727s46.888-104.727 104.727-104.727c57.839 0 104.727 46.888 104.727 104.727s-46.888 104.727-104.727 104.727zM232.727 552.727c0 96.399 78.147 174.545 174.545 174.545 96.4 0 174.545-78.147 174.545-174.545 0-96.4-78.145-174.545-174.545-174.545s-174.545 78.145-174.545 174.545z" />
<glyph unicode="&#xe910;" glyph-name="music" d="M405.333 202.667c-41.237 0-74.667-33.429-74.667-74.667s33.429-74.667 74.667-74.667c41.237 0 74.667 33.429 74.667 74.667s-33.429 74.667-74.667 74.667zM266.667 128c0 76.582 62.083 138.667 138.667 138.667 76.582 0 138.667-62.084 138.667-138.667s-62.084-138.667-138.667-138.667c-76.584 0-138.667 62.084-138.667 138.667zM832 288c-41.237 0-74.667-33.429-74.667-74.667s33.429-74.667 74.667-74.667c41.237 0 74.667 33.429 74.667 74.667s-33.429 74.667-74.667 74.667zM693.333 213.333c0 76.582 62.084 138.667 138.667 138.667s138.667-62.084 138.667-138.667c0-76.582-62.084-138.667-138.667-138.667s-138.667 62.084-138.667 138.667zM968.38 630.551c6.562-16.409-1.421-35.032-17.826-41.596l-426.667-170.668c-16.41-6.562-35.034 1.421-41.596 17.83-6.566 16.405 1.417 35.029 17.826 41.596l426.667 170.665c16.41 6.563 35.029-1.418 41.596-17.827zM835.102 791.847c-28.659-7.303-66.185-22.917-120.64-45.71l-85.333-35.716c-26.035-10.897-43.196-18.127-55.812-25.093-11.93-6.589-17.097-11.543-20.382-16.483-3.29-4.939-5.862-11.619-7.334-25.167-1.557-14.325-1.6-32.946-1.6-61.172v-433.173h-64v434.842c0 26.107 0 48.226 1.975 66.413 2.099 19.351 6.673 37.175 17.677 53.715 11.008 16.539 25.685 27.638 42.726 37.048 16.013 8.844 36.416 17.384 60.501 27.462 0.512 0.214 1.024 0.429 1.54 0.644l87.804 36.751c51.379 21.506 93.278 39.043 127.074 47.655 34.944 8.905 68.868 10.341 99.042-9.741s41.946-51.928 47.223-87.601c5.107-34.5 5.103-79.921 5.103-135.619v-392.799h-64v390.118c0 59.034-0.085 99.676-4.412 128.934-4.237 28.637-11.494 38.444-19.375 43.688-7.876 5.244-19.725 8.151-47.778 1.003zM298.667 906.667c17.673 0 32-14.327 32-32v-384c0-17.673-14.327-32-32-32s-32 14.327-32 32v384c0 17.673 14.327 32 32 32zM192 586.667c-41.237 0-74.667-33.429-74.667-74.667s33.429-74.667 74.667-74.667c41.237 0 74.667 33.429 74.667 74.667s-33.429 74.667-74.667 74.667zM53.333 512c0 76.584 62.083 138.667 138.667 138.667s138.667-62.083 138.667-138.667c0-76.582-62.083-138.667-138.667-138.667s-138.667 62.084-138.667 138.667zM298.667 906.667c17.673 0 32-14.327 32-32 0-34.042 14.012-57.199 32.495-72.464 19.401-16.022 44.12-23.536 63.505-23.536 17.673 0 32-14.327 32-32s-14.327-32-32-32c-33.634 0-72.915 12.303-104.259 38.19-32.262 26.644-55.741 67.486-55.741 121.81 0 17.673 14.327 32 32 32z" />
<glyph unicode="&#xe911;" glyph-name="info" d="M500.364 890.182c-237.784 0-430.545-192.762-430.545-430.545 0-237.782 192.762-430.545 430.545-430.545s430.545 192.763 430.545 430.545c0 237.784-192.763 430.545-430.545 430.545zM0 459.636c0 276.343 224.020 500.364 500.364 500.364 276.345 0 500.364-224.020 500.364-500.364 0-276.345-224.019-500.364-500.364-500.364-276.343 0-500.364 224.019-500.364 500.364zM500.364 192c19.279 0 34.909 15.63 34.909 34.909v279.273c0 19.28-15.63 34.909-34.909 34.909s-34.909-15.629-34.909-34.909v-279.273c0-19.279 15.63-34.909 34.909-34.909zM546.909 645.818c0 25.706-20.838 46.545-46.545 46.545s-46.545-20.839-46.545-46.545c0-25.706 20.838-46.545 46.545-46.545s46.545 20.839 46.545 46.545z" />
<glyph unicode="&#xe912;" glyph-name="airplane" horiz-adv-x="1142" d="M374.738 945.899c6.698 8.88 17.176 14.101 28.297 14.101h157.538c12.721 0 24.466-6.816 30.779-17.86l199.845-349.73h189.479c77.58 0 140.473-62.892 140.473-140.472s-62.893-140.473-140.473-140.473h-189.479l-199.845-349.728c-6.313-11.043-18.058-17.861-30.779-17.861h-157.538c-11.121 0-21.599 5.222-28.297 14.1-6.698 8.881-8.839 20.389-5.784 31.082l92.114 322.406h-148.375l-94.644-94.641c-6.648-6.648-15.663-10.382-25.064-10.382h-157.538c-12.285 0-23.694 6.361-30.152 16.809s-7.046 23.501-1.552 34.489l97.1 194.198-97.1 194.199c-5.494 10.988-4.907 24.037 1.552 34.487s17.867 16.811 30.152 16.811h157.538c9.401 0 18.417-3.734 25.064-10.382l94.644-94.644h148.375l-92.114 322.406c-3.055 10.695-0.914 22.204 5.784 31.083zM450.028 889.108l92.117-322.406c3.056-10.694 0.914-22.202-5.786-31.083s-17.176-14.1-28.298-14.1h-210.051c-9.401 0-18.417 3.734-25.064 10.382l-94.644 94.642h-85.503l79.377-158.753c4.99-9.98 4.99-21.725 0-31.705l-79.377-158.752h85.503l94.644 94.641c6.647 6.648 15.663 10.382 25.064 10.382h210.051c11.122 0 21.599-5.218 28.298-14.1s8.842-20.389 5.786-31.082l-92.117-322.406h89.974l199.845 349.731c6.313 11.043 18.058 17.857 30.779 17.857h210.050c38.428 0 69.581 31.153 69.581 69.581s-31.153 69.581-69.581 69.581h-210.050c-12.721 0-24.466 6.814-30.779 17.857l-199.845 349.731h-89.974z" />
<glyph unicode="&#xe913;" glyph-name="home" d="M460.909 808.692c-24.378-11.855-53.884-30.093-97.558-57.198l-85.333-52.96c-41.31-25.638-69.151-42.984-89.698-58.72-19.62-15.026-29.455-26.31-35.955-38.184-6.546-11.96-10.925-26.744-13.32-52.233-2.492-26.525-2.544-60.346-2.544-110.116v-64.896c0-84.618 0.101-143.104 5.821-187.105 5.551-42.706 15.57-63.974 29.776-78.669 13.973-14.454 33.846-24.489 74.32-30.121 42.13-5.857 98.267-5.975 180.215-5.975h170.666c81.951 0 138.086 0.118 180.214 5.975 40.479 5.632 60.349 15.667 74.322 30.121 14.208 14.694 24.228 35.963 29.778 78.669 5.719 44.001 5.821 102.487 5.821 187.105v64.896c0 49.77-0.051 83.591-2.545 110.115-2.396 25.49-6.774 40.274-13.322 52.234-6.497 11.874-16.333 23.159-35.953 38.184-20.547 15.736-48.389 33.081-89.697 58.72l-85.335 52.96c-43.674 27.105-73.18 45.343-97.556 57.198-23.332 11.345-37.944 14.758-51.059 14.758-13.113 0-27.727-3.412-51.058-14.758zM416.127 900.781c31.269 15.206 61.681 25.069 95.84 25.069s64.571-9.863 95.839-25.069c29.686-14.436 63.667-35.525 104.566-60.909l89.62-55.623c38.707-24.019 70.866-43.979 95.882-63.137 26.388-20.21 47.867-41.719 63.519-70.316 15.606-28.511 22.303-58.373 25.446-91.821 2.995-31.875 2.995-70.517 2.995-117.32v-70.851c0-80.174 0-145.347-6.676-196.726-6.948-53.443-21.919-99.635-57.702-136.643-36.014-37.253-81.362-53.074-133.837-60.37-50.007-6.953-113.306-6.953-190.551-6.953h-178.202c-77.245 0-140.543 0-190.552 6.953-52.475 7.296-97.822 23.117-133.837 60.37-35.78 37.007-50.755 83.2-57.701 136.643-6.678 51.379-6.677 116.552-6.676 196.726v70.851c-0.001 46.802-0.002 85.445 2.994 117.32 3.143 33.448 9.841 63.309 25.447 91.821 15.652 28.596 37.129 50.106 63.519 70.316 25.015 19.158 57.177 39.117 95.881 63.137l89.626 55.624c40.898 25.384 74.875 46.472 104.561 60.908zM332.8 192c0 28.278 22.923 51.2 51.2 51.2h256c28.278 0 51.2-22.922 51.2-51.2s-22.922-51.2-51.2-51.2h-256c-28.277 0-51.2 22.922-51.2 51.2z" />
<glyph unicode="&#xe914;" glyph-name="document" d="M202.667 736h522.667c88.367 0 160-71.634 160-160v-426.667c0-88.367-71.633-160-160-160h-426.667c-88.366 0-160 71.633-160 160v597.333h64v-10.667zM202.667 672v-522.667c0-53.018 42.981-96 96-96h426.667c53.018 0 96 42.982 96 96v426.667c0 53.019-42.982 96-96 96h-522.667zM666.074 892.431c70.686 10.098 133.926-44.751 133.926-116.154v-104.276h-583.634c-42.912 0-77.699 34.787-77.699 77.699 0 38.667 28.432 71.45 66.711 76.918l460.696 65.814zM736 776.277c0 32.456-28.745 57.388-60.877 52.797l-460.695-65.814c-6.749-0.964-11.761-6.744-11.761-13.561 0-7.566 6.133-13.699 13.699-13.699h519.634v40.276zM309.333 448c0 17.673 14.327 32 32 32h341.333c17.673 0 32-14.327 32-32s-14.327-32-32-32h-341.333c-17.673 0-32 14.327-32 32zM309.333 298.667c0 17.673 14.327 32 32 32h234.667c17.673 0 32-14.327 32-32s-14.327-32-32-32h-234.667c-17.673 0-32 14.327-32 32z" />
<glyph unicode="&#xe915;" glyph-name="scissors" d="M240.318 902.56c15.405 8.661 34.915 3.194 43.576-12.211l380.332-676.462c24.815 56.213 81.045 95.445 146.441 95.445 88.367 0 160-71.633 160-160s-71.633-160-160-160c-60.71 0-113.519 33.809-140.629 83.631l-441.93 786.020c-8.661 15.405-3.194 34.915 12.211 43.576zM727.356 101.598c16.563-28.838 47.667-48.265 83.311-48.265 53.022 0 96 42.982 96 96s-42.978 96-96 96c-53.018 0-96-42.982-96-96 0-16.755 4.292-32.508 11.84-46.221l0.849-1.515zM783.684 902.56c-15.407 8.661-34.918 3.194-43.58-12.211l-380.329-676.462c-24.815 56.213-81.047 95.445-146.443 95.445-88.366 0-160-71.633-160-160s71.634-160 160-160c60.709 0 113.521 33.809 140.632 83.631l441.926 786.020c8.661 15.405 3.196 34.915-12.207 43.576zM296.643 101.598c-16.561-28.838-47.667-48.265-83.31-48.265-53.019 0-96 42.982-96 96s42.981 96 96 96c53.019 0 96-42.982 96-96 0-16.755-4.293-32.508-11.839-46.221l-0.851-1.515z" />
<glyph unicode="&#xe916;" glyph-name="football" d="M118.698 481.079c5.795 69.921 29.792 134.662 67.232 189.466l7.137-26.667c7.864-29.384 13.022-48.841 15.308-64.177 2.165-14.523 1.178-22.078-1.059-27.98-2.237-5.9-6.501-12.202-17.739-21.627-11.87-9.95-28.62-21.082-53.978-37.841l-16.901-11.174zM236.017 730.271c0.398-1.039 0.745-2.108 1.039-3.206l18.294-68.353c7.284-27.212 13.439-50.205 16.326-69.575 1.481-9.938 2.234-19.66 1.769-29.291l106.661-44.948c2.394 2.419 4.974 4.698 7.732 6.805l78.359 59.929c4.203 3.217 8.67 5.928 13.312 8.133v115.608c-8.892 3.064-17.446 7.229-25.937 12.114-16.964 9.762-36.102 23.891-58.747 40.608l-58.797 43.402c-37.022-18.459-70.735-42.578-100.011-71.225zM407.010 828.647l24.393-18.007c24.461-18.054 40.67-29.958 54.093-37.682 12.71-7.313 20.079-9.142 26.359-9.21s13.687 1.6 26.551 8.637c13.585 7.432 30.046 18.983 54.891 36.503l26.505 18.695c-34.411 9.824-70.737 15.083-108.292 15.083-36.177 0-71.219-4.88-104.5-14.019zM690.556 799.693c-1.233-1.213-2.577-2.343-4.036-3.372l-57.788-40.756c-23.002-16.224-42.441-29.935-59.614-39.328-8.41-4.599-16.862-8.508-25.609-11.364v-115.109c4.638-2.205 9.105-4.916 13.308-8.133l78.362-59.929c2.803-2.146 5.427-4.467 7.855-6.933l109.261 45.244c-0.448 9.575 0.307 19.24 1.779 29.12 2.884 19.37 9.041 42.364 16.324 69.576l18.295 68.352c0.107 0.404 0.222 0.804 0.346 1.199-28.809 28.6-62.003 52.778-98.483 71.433zM839.044 667.651l-6.362-23.776c-7.868-29.384-13.022-48.841-15.309-64.177-2.163-14.523-1.178-22.078 1.058-27.98 2.236-5.9 6.502-12.202 17.741-21.623 11.87-9.954 28.617-21.086 53.978-37.845l14.003-9.259c-5.961 67.963-29.129 130.979-65.109 184.66zM969.365 430.848c2.061-7.019 1.719-14.699-1.306-21.692-19.695-235.106-216.546-419.823-456.55-419.823-253.079 0-458.176 205.389-458.176 458.667 0 253.28 205.097 458.667 458.176 458.667 253.077 0 458.172-205.387 458.172-458.667 0-5.743-0.107-11.46-0.316-17.152zM903.548 406.673l-50.172 33.165c-23.479 15.518-43.328 28.638-58.325 41.216-7.202 6.033-13.798 12.352-19.558 19.294l-111.458-46.153c-0.512-4.642-1.463-9.276-2.876-13.85l-30.775-99.712c-1.071-3.473-2.381-6.827-3.908-10.039l62.639-72.452c9.579 3.2 19.601 5.107 30.054 6.306 19.443 2.219 43.226 2.219 71.36 2.219h70.686c0.166 0 0.329 0 0.491-0.004 22.101 42.705 36.642 89.967 41.843 140.011zM820.292 202.667h-27.989c-30.387 0-50.487-0.047-65.869-1.805-14.558-1.664-21.577-4.57-26.675-8.252-5.107-3.682-10.082-9.438-16.269-22.75-6.532-14.059-12.937-33.139-22.545-61.999l-9.651-28.992c66.957 25.434 125.201 68.612 168.998 123.797zM577.148 58.782l23.633 70.98c8.9 26.726 16.418 49.31 24.67 67.068 3.712 7.991 7.804 15.539 12.595 22.524l-61.201 70.788c-5.722-1.404-11.674-2.142-17.758-2.142h-95.159c-5.645 0-11.174 0.636-16.512 1.847l-54.463-69.359c5.131-7.3 9.466-15.232 13.382-23.659 8.252-17.758 15.77-40.341 24.667-67.068l24.111-72.418c18.419-2.645 37.248-4.011 56.397-4.011 22.362 0 44.292 1.865 65.638 5.449zM381.702 75.234l-10.863 32.627c-9.609 28.86-16.013 47.94-22.545 61.999-6.186 13.312-11.164 19.068-16.268 22.75-5.102 3.682-12.118 6.588-26.678 8.252-15.38 1.758-35.481 1.805-65.868 1.805h-36.756c45.959-57.911 107.826-102.596 178.979-127.433zM161.923 265.485c2.75 0.768 5.649 1.182 8.645 1.182h70.688c28.135 0 51.917 0 71.36-2.219 10.015-1.148 19.631-2.944 28.842-5.909l55.656 70.878c-1.773 3.571-3.277 7.317-4.481 11.217l-30.777 99.712c-1.428 4.625-2.386 9.314-2.894 14.012l-108.819 45.858c-5.736-6.886-12.292-13.163-19.444-19.157-15-12.578-34.845-25.698-58.327-41.216l-52.725-34.854c5.399-49.882 20.079-96.969 42.276-139.503zM511.509 532.975c-2.283 0-4.527-0.721-6.434-2.18l-78.357-59.93c-1.798-1.374-3.063-3.234-3.709-5.329-0.625-2.022-0.652-4.207 0-6.315l30.777-99.712c0.657-2.138 1.924-3.925 3.588-5.235 1.843-1.455 4.117-2.274 6.554-2.274h95.159c2.436 0 4.71 0.819 6.554 2.274 1.664 1.31 2.931 3.098 3.588 5.235l30.775 99.712c0.653 2.108 0.627 4.292 0.004 6.315-0.649 2.095-1.911 3.955-3.712 5.329l-78.357 59.93c-1.907 1.459-4.151 2.18-6.43 2.18z" />
<glyph unicode="&#xe917;" glyph-name="academic-cap" d="M403.812 839.656c69.237 32.459 147.134 32.459 216.373 0l285.491-133.845c44.898-21.049 64.99-66.759 64.99-108.478s-20.092-87.427-64.99-108.479l-285.487-133.841c-69.239-32.461-147.136-32.461-216.374 0l-285.492 133.845c-44.898 21.047-64.991 66.757-64.991 108.477s20.094 87.43 64.992 108.478l285.487 133.843zM593.015 781.708c-52.023 24.39-110.012 24.39-162.035 0l-285.488-133.843c-17.202-8.065-28.159-27.302-28.159-50.531s10.956-42.466 28.158-50.531l285.493-133.846c52.023-24.388 110.012-24.388 162.035 0l285.487 133.844c17.203 8.065 28.16 27.302 28.16 50.531s-10.957 42.466-28.16 50.531l-285.491 133.844zM85.333 629.333c17.673 0 32-14.327 32-32v-234.667c0-17.673-14.327-32-32-32s-32 14.327-32 32v234.667c0 17.673 14.327 32 32 32zM213.333 501.333c17.673 0 32-14.327 32-32v-218.684c0-32.555 16.16-61.47 42.61-76.122v0c30.577-16.93 69.892-36.817 110.496-52.395 41.125-15.778 81.044-26.133 113.56-26.133s72.435 10.355 113.562 26.133c40.602 15.578 79.919 35.465 110.494 52.395 26.453 14.652 42.611 43.567 42.611 76.122v218.684c0 17.673 14.327 32 32 32s32-14.327 32-32v-218.684c0-53.466-26.807-105.084-75.605-132.109-32.073-17.762-74.223-39.142-118.579-56.162-43.831-16.815-92.369-30.379-136.482-30.379s-92.65 13.564-136.484 30.379c-44.355 17.020-86.505 38.4-118.578 56.162-48.799 27.025-75.604 78.643-75.604 132.109v218.684c0 17.673 14.327 32 32 32z" />
<glyph unicode="&#xe918;" glyph-name="info-id" d="M384 629.333c-29.455 0-53.333-23.878-53.333-53.333s23.878-53.333 53.333-53.333c29.455 0 53.333 23.878 53.333 53.333s-23.878 53.333-53.333 53.333zM266.667 576c0 64.801 52.532 117.333 117.333 117.333s117.333-52.532 117.333-117.333c0-64.802-52.531-117.333-117.333-117.333s-117.333 52.531-117.333 117.333zM277.632 351.718c-27.483-13.743-32.298-26.803-32.298-31.718 0-25.792 1.642-29.747 8.097-34.419 5.207-3.767 15.929-8.819 37.57-12.715 21.397-3.849 51.306-6.199 93-6.199s71.602 2.351 93 6.199c21.641 3.895 32.363 8.947 37.572 12.715 6.451 4.672 8.094 8.627 8.094 34.419 0 4.915-4.813 17.975-32.299 31.718-25.566 12.783-63.13 21.615-106.367 21.615s-80.8-8.832-106.368-21.615zM249.010 408.96c36.201 18.103 83.972 28.373 134.991 28.373s98.79-10.27 134.992-28.373c34.283-17.143 67.674-46.746 67.674-88.96 0-0.862 0.004-1.749 0.004-2.667 0.068-21.773 0.179-58.441-34.573-83.597-16.128-11.669-37.406-19.115-63.765-23.859-26.603-4.787-60.693-7.211-104.332-7.211s-77.73 2.423-104.333 7.211c-26.359 4.745-47.638 12.19-63.764 23.859-34.751 25.156-34.641 61.824-34.575 83.597 0.003 0.917 0.006 1.805 0.006 2.667 0 42.214 33.39 71.817 67.676 88.96zM424.259 821.333h175.48c78.413 0.001 140.518 0.001 189.124-6.534 50.022-6.725 90.513-20.896 122.445-52.826 31.927-31.93 46.097-72.419 52.826-122.442 6.532-48.606 6.532-110.712 6.532-189.125v-4.813c0-78.413 0-140.518-6.532-189.124-6.729-50.022-20.898-90.513-52.826-122.445-31.932-31.927-72.422-46.097-122.445-52.826-48.606-6.532-110.711-6.532-189.124-6.532h-175.48c-78.411 0-140.518 0-189.125 6.532-50.023 6.729-90.512 20.898-122.442 52.826-31.93 31.932-46.1 72.422-52.826 122.445-6.535 48.606-6.535 110.711-6.534 189.124v4.813c-0.001 78.413-0.001 140.519 6.534 189.125 6.725 50.023 20.896 90.512 52.826 122.442s72.419 46.1 122.442 52.826c48.606 6.535 110.713 6.535 189.124 6.534zM243.663 751.37c-42.927-5.771-67.658-16.594-85.715-34.651s-28.88-42.789-34.651-85.715c-5.895-43.847-5.963-101.647-5.963-183.004s0.068-139.157 5.963-183.006c5.771-42.923 16.594-67.657 34.651-85.713s42.789-28.881 85.715-34.65c43.847-5.897 101.646-5.965 183.004-5.965h170.667c81.357 0 139.157 0.068 183.006 5.965 42.923 5.769 67.657 16.593 85.713 34.65s28.881 42.79 34.65 85.713c5.897 43.849 5.965 101.649 5.965 183.006s-0.068 139.157-5.965 183.004c-5.769 42.927-16.593 67.658-34.65 85.715s-42.79 28.88-85.713 34.651c-43.849 5.895-101.649 5.963-183.006 5.963h-170.667c-81.358 0-139.157-0.068-183.004-5.963zM842.667 448c0-17.673-14.327-32-32-32h-170.667c-17.673 0-32 14.327-32 32s14.327 32 32 32h170.667c17.673 0 32-14.327 32-32zM842.667 576c0-17.673-14.327-32-32-32h-213.333c-17.673 0-32 14.327-32 32s14.327 32 32 32h213.333c17.673 0 32-14.327 32-32zM842.667 320c0-17.673-14.327-32-32-32h-128c-17.673 0-32 14.327-32 32s14.327 32 32 32h128c17.673 0 32-14.327 32-32z" />
<glyph unicode="&#xe919;" glyph-name="danger-triangle" d="M404.18 729.416c-41.558-52.785-86.866-132.931-149.676-244.291l-15.516-27.511c-52.319-92.762-89.498-158.886-108.414-210.138-18.673-50.59-16.084-77.41-1.658-98.103 15.383-22.067 44.256-37.184 105.605-45.261 61.098-8.043 145.323-8.111 261.961-8.111h31.031c116.642 0 200.866 0.068 261.965 8.111 61.346 8.077 90.219 23.194 105.604 45.261 14.426 20.693 17.015 47.514-1.66 98.103-18.914 51.251-56.094 117.376-108.412 210.138l-15.518 27.511c-62.81 111.361-108.117 191.506-149.675 244.292-41.173 52.295-73.148 70.584-107.819 70.584s-66.65-18.289-107.82-70.584zM353.894 769.006c45.735 58.091 94.182 94.994 158.106 94.994 63.919 0 112.367-36.904 158.106-94.994 44.979-57.132 92.642-141.646 153.63-249.778l18.581-32.943c50.415-89.382 90.231-159.983 111.147-216.649 21.376-57.907 26.453-110.485-5.879-156.864-31.377-45.009-83.729-63.424-149.756-72.115-65.771-8.657-154.223-8.657-267.703-8.657h-36.25c-113.481 0-201.933 0-267.707 8.657-66.027 8.691-118.377 27.106-149.753 72.115-32.333 46.379-27.256 98.957-5.882 156.864 20.915 56.666 60.733 127.262 111.148 216.649l18.578 32.939c60.987 108.135 108.654 192.65 153.634 249.782zM512 650.667c17.673 0 32-14.327 32-32v-213.333c0-17.673-14.327-32-32-32s-32 14.327-32 32v213.333c0 17.673 14.327 32 32 32zM554.667 277.333c0-23.565-19.102-42.667-42.667-42.667s-42.667 19.102-42.667 42.667c0 23.565 19.102 42.667 42.667 42.667s42.667-19.102 42.667-42.667z" />
<glyph unicode="&#xe91a;" glyph-name="gamepad" d="M241.427 812.64c21.566 7.649 43.473 8.693 61.616 8.693h26.132c44.066 0 87.047-13.67 123.015-39.126l21.414-15.156c11.23-7.945 24.644-12.212 38.396-12.212 13.756 0 27.17 4.267 38.396 12.212l21.414 15.155c35.968 25.456 78.95 39.127 123.012 39.127h26.133c18.146 0 40.051-1.044 61.615-8.692 61.581-21.84 110.281-72.029 142.353-153.233 31.744-80.368 48.043-192.813 45.483-344.327-0.542-31.979-4.531-67.819-16.828-100.1-12.454-32.704-34.219-63.531-70.835-81.041-20.83-9.963-45.38-16.606-73.216-16.606-33.574 0-61.193 9.673-82.863 23.872-20.156 13.214-37.781 30.293-52.838 44.885-1.835 1.779-3.631 3.516-5.389 5.21-17.276 16.627-31.799 29.602-47.915 37.961-20.365 10.56-42.965 16.073-65.903 16.073h-85.235c-22.942 0-45.543-5.513-65.906-16.073-16.117-8.358-30.641-21.333-47.915-37.961-1.757-1.694-3.553-3.43-5.387-5.21-15.058-14.592-32.684-31.671-52.842-44.885-21.67-14.199-49.286-23.872-82.861-23.872-27.836 0-52.388 6.643-73.218 16.606-36.616 17.51-58.377 48.337-70.834 81.041-12.295 32.282-16.284 68.122-16.825 100.1-2.563 151.509 13.736 263.959 45.479 344.326 32.074 81.204 80.774 131.394 142.352 153.233zM303.043 757.333c-16.347 0-29.282-1.131-40.223-5.011-40.083-14.217-77.178-47.962-104.22-116.426-27.372-69.301-43.508-172.255-41.014-319.732 0.478-28.267 4.047-55.834 12.643-78.404 8.434-22.144 20.899-37.602 38.637-46.084 13.045-6.238 28.212-10.342 45.606-10.342 20.698 0 36.183 5.803 47.778 13.402 14.752 9.668 27.864 22.332 43.614 37.547 1.738 1.681 3.507 3.388 5.315 5.129 17.108 16.469 37.565 35.563 62.835 48.666 29.467 15.283 62.175 23.258 95.369 23.258h85.235c33.19 0 65.899-7.974 95.364-23.258 25.271-13.103 45.73-32.196 62.835-48.666 1.809-1.741 3.58-3.447 5.316-5.129 15.748-15.215 28.86-27.878 43.614-37.547 11.597-7.599 27.081-13.402 47.778-13.402 17.395 0 32.559 4.105 45.606 10.342 17.741 8.482 30.204 23.94 38.639 46.084 8.593 22.571 12.164 50.138 12.642 78.404 2.492 147.477-13.641 250.432-41.015 319.732-27.042 68.464-64.137 102.21-104.222 116.426-10.94 3.88-23.872 5.011-40.222 5.011h-26.133c-30.818 0-60.881-9.562-86.042-27.367l-21.414-15.155c-22.033-15.596-48.367-23.971-75.366-23.971-26.995 0-53.329 8.375-75.366 23.971l-21.414 15.155c-25.159 17.805-55.222 27.367-86.045 27.367h-26.132zM320 608c17.673 0 32-14.327 32-32v-32h32c17.673 0 32-14.327 32-32s-14.327-32-32-32h-32v-32c0-17.673-14.327-32-32-32s-32 14.327-32 32v32h-32c-17.673 0-32 14.327-32 32s14.327 32 32 32h32v32c0 17.673 14.327 32 32 32zM810.667 522.667c0-17.673-14.327-32-32-32s-32 14.327-32 32c0 17.673 14.327 32 32 32s32-14.327 32-32zM682.667 522.667c0-17.673-14.327-32-32-32s-32 14.327-32 32c0 17.673 14.327 32 32 32s32-14.327 32-32zM714.667 618.667c17.673 0 32-14.327 32-32s-14.327-32-32-32c-17.673 0-32 14.327-32 32s14.327 32 32 32zM714.667 490.667c17.673 0 32-14.327 32-32s-14.327-32-32-32c-17.673 0-32 14.327-32 32s14.327 32 32 32z" />
<glyph unicode="&#xe91b;" glyph-name="bookmark" horiz-adv-x="1186" d="M1013.539 959.912c82.394 2.87 145.198-64.764 145.198-143.629v-604.18c0-82.793-67.034-147.434-146.486-152.404-51.674-3.234-109.821-9.448-153.093-20.868-53.496-14.115-119.646-45.503-173.056-73.971-66.468-35.43-146.998-35.43-213.465 0-53.411 28.467-119.561 59.855-173.055 73.971-43.276 11.42-101.421 17.634-153.093 20.868-79.455 4.969-146.488 69.61-146.488 152.404v600.698c0 80.797 65.761 149.142 149.742 143.98 53.181-3.269 118.684-9.832 170.466-23.496 61.241-16.16 131.827-49.787 185.478-78.157 44.671-23.62 99.558-22.347 143.649 3.17v0c47.018 27.214 107.342 58.572 160.967 74.627 61.693 18.469 141.883 24.851 203.237 26.988zM1077.895 816.283c0 36.734-28.408 63.99-61.542 62.836-60.303-2.1-131.708-8.326-182.865-23.64-44.204-13.234-97.824-40.623-143.662-67.15-67.827-39.255-152.286-41.494-221.929-4.667-52.645 27.838-116.462 57.774-168.315 71.457-43.774 11.551-102.737 17.773-154.799 20.973-34.167 2.1-63.94-25.715-63.94-63.29v-600.698c0-36.961 30.629-69.212 70.693-71.718 52.821-3.304 117.45-9.868 168.673-23.385 63.075-16.643 136.133-51.841 190.456-80.799 42.7-22.765 94.709-22.765 137.409 0 54.321 28.958 127.38 64.156 190.453 80.799 51.227 13.517 115.852 20.081 168.674 23.385 40.065 2.506 70.694 34.757 70.694 71.718v604.18zM538.947-49.626v816.288h80.842v-816.288h-80.842zM162.891 606.912c5.414 21.658 27.36 34.825 49.018 29.411l215.579-53.895c21.657-5.415 34.825-27.361 29.41-49.018s-27.36-34.825-49.018-29.411l-215.579 53.895c-21.657 5.414-34.825 27.36-29.41 49.018zM162.891 391.335c5.414 21.655 27.36 34.824 49.018 29.41l215.579-53.895c21.657-5.416 34.825-27.362 29.41-49.017-5.414-21.66-27.36-34.827-49.018-29.41l-215.579 53.895c-21.657 5.411-34.825 27.357-29.41 49.017zM995.845 391.335c-5.411 21.655-27.357 34.824-49.017 29.41l-215.579-53.895c-21.655-5.416-34.827-27.362-29.41-49.017 5.416-21.66 27.362-34.827 49.017-29.41l215.579 53.895c21.66 5.411 34.827 27.357 29.41 49.017zM956.632 826.161c22.323 0 40.421-18.097 40.421-40.421v-216.134c0-0.464 0-0.948 0-1.45 0.011-5.994 0.022-14.54-1.126-21.876-1.401-8.969-6.015-26.284-23.94-36.811-17.268-10.138-34.153-6.373-42.183-3.878-6.996 2.175-14.67 5.831-20.394 8.556-0.453 0.216-0.895 0.426-1.32 0.628l-59.246 28.143-59.246-28.143c-0.426-0.203-0.868-0.413-1.32-0.628-5.724-2.725-13.398-6.381-20.394-8.556-8.030-2.495-24.916-6.26-42.183 3.878-17.931 10.527-22.539 27.842-23.945 36.811-1.143 7.336-1.132 15.882-1.121 21.876 0 0.502 0 0.986 0 1.45v137.985c0 22.324 18.098 40.421 40.421 40.421s40.421-18.097 40.421-40.421v-107.173l40.383 19.183c0.097 0.047 0.259 0.128 0.474 0.239 2.641 1.351 13.77 7.042 26.511 7.042 12.735 0 23.87-5.691 26.511-7.042 0.216-0.11 0.372-0.192 0.474-0.239v0l40.383-19.183v185.322c0 22.324 18.098 40.421 40.421 40.421z" />
<glyph unicode="&#xe91c;" glyph-name="building-2" d="M0-5.818c0 19.279 15.629 34.909 34.909 34.909h930.909c19.279 0 34.909-15.63 34.909-34.909s-15.63-34.909-34.909-34.909h-930.909c-19.28 0-34.909 15.63-34.909 34.909zM451.398 960h97.932c41.821 0.001 76.693 0.003 104.378-3.72 29.221-3.929 55.603-12.571 76.8-33.771 21.201-21.2 29.845-47.582 33.773-76.803 3.724-27.685 3.719-62.558 3.719-104.378v-747.147h-69.818v744.727c0 44.87-0.074 75.011-3.095 97.495-2.89 21.479-7.88 30.671-13.945 36.737s-15.258 11.056-36.738 13.944c-22.481 3.023-52.624 3.097-97.494 3.097h-93.091c-44.87 0-75.011-0.074-97.495-3.097-21.479-2.888-30.671-7.878-36.737-13.944s-11.056-15.258-13.944-36.737c-3.023-22.483-3.097-52.624-3.097-97.495v-744.727h-69.818v747.148c-0.001 41.82-0.002 76.693 3.719 104.377 3.929 29.221 12.571 55.603 33.771 76.803s47.582 29.842 76.803 33.771c27.684 3.722 62.557 3.721 104.377 3.72zM829.31 609.127c-17.101 1.739-39.536 1.782-72.946 1.782v69.818c0.596 0 1.192 0 1.783 0 31.167 0.001 57.172 0.001 78.229-2.14 22.039-2.242 42.487-7.116 60.919-19.432 13.978-9.339 25.977-21.339 35.314-35.315 12.316-18.432 17.194-38.883 19.433-60.921 2.141-21.054 2.141-47.060 2.141-78.228v-490.51h-69.818v488.727c0 33.412-0.042 55.844-1.783 72.945-1.68 16.518-4.65 24.15-8.024 29.197-4.245 6.353-9.695 11.808-16.049 16.053-5.050 3.373-12.684 6.343-29.198 8.024zM242.579 680.727h1.785v-69.818c-33.412 0-55.844-0.042-72.945-1.782-16.518-1.68-24.15-4.651-29.197-8.024-6.353-4.245-11.808-9.7-16.053-16.053-3.373-5.048-6.343-12.68-8.024-29.197-1.739-17.101-1.782-39.532-1.782-72.945v-488.727h-69.818v490.51c-0.001 31.168-0.001 57.174 2.14 78.228 2.242 22.038 7.116 42.489 19.432 60.921 9.339 13.976 21.339 25.976 35.315 35.315 18.432 12.316 38.883 17.19 60.921 19.432 21.054 2.142 47.060 2.141 78.226 2.14zM500.364 168.727c19.279 0 34.909-15.63 34.909-34.909v-139.636c0-19.279-15.63-34.909-34.909-34.909s-34.909 15.63-34.909 34.909v139.636c0 19.279 15.63 34.909 34.909 34.909zM372.364 785.455c0 19.28 15.629 34.909 34.909 34.909h186.182c19.279 0 34.909-15.629 34.909-34.909s-15.63-34.909-34.909-34.909h-186.182c-19.28 0-34.909 15.629-34.909 34.909zM372.364 645.818c0 19.28 15.629 34.909 34.909 34.909h186.182c19.279 0 34.909-15.629 34.909-34.909s-15.63-34.909-34.909-34.909h-186.182c-19.28 0-34.909 15.629-34.909 34.909zM372.364 506.182c0 19.28 15.629 34.909 34.909 34.909h186.182c19.279 0 34.909-15.629 34.909-34.909s-15.63-34.909-34.909-34.909h-186.182c-19.28 0-34.909 15.63-34.909 34.909zM372.364 366.545c0 19.279 15.629 34.909 34.909 34.909h186.182c19.279 0 34.909-15.63 34.909-34.909s-15.63-34.909-34.909-34.909h-186.182c-19.28 0-34.909 15.63-34.909 34.909z" />
<glyph unicode="&#xe91d;" glyph-name="whatsapp" d="M634.24 388.142c-19.379-7.921-31.759-38.262-44.319-53.76-6.441-7.941-14.121-9.18-24.023-5.202-72.739 28.979-128.499 77.522-168.639 144.46-6.8 10.38-5.58 18.58 2.62 28.22 12.12 14.28 27.36 30.5 30.64 49.74 7.28 42.56-48.36 174.58-121.84 114.76-211.44-172.3 352.722-629.281 454.539-382.118 28.8 70.057-96.86 117.059-128.978 103.9zM511.999 25.441c-74.78 0-148.36 19.881-212.78 57.518-10.34 6.062-22.84 7.66-34.4 4.521l-139.98-38.42 48.76 107.418c3.261 7.173 4.569 15.078 3.789 22.922-0.78 7.839-3.619 15.329-8.229 21.719-52.16 72.3-79.74 157.66-79.74 246.881 0 233.020 189.56 422.58 422.58 422.58 233.022 0 422.559-189.56 422.559-422.58 0-233.001-189.558-422.559-422.559-422.559zM511.999 960c-282.32 0-512-229.68-512-512 0-99.318 28.2-194.698 81.78-277.478l-77.78-171.3c-3.515-7.741-4.753-16.317-3.57-24.735 1.183-8.412 4.738-16.317 10.25-22.789 4.204-4.915 9.423-8.868 15.299-11.576 5.876-2.714 12.27-4.116 18.741-4.122 28.84 0 186.1 49.418 226.12 60.401 73.98-39.583 156.96-60.401 241.16-60.401 282.302 0 512.001 229.699 512.001 512 0 282.32-229.699 512-512.001 512z" />
<glyph unicode="&#xe91e;" glyph-name="money" horiz-adv-x="1408" d="M1085.453 858.854c-50.016 5.088-114.566 5.146-205.453 5.146h-384c-90.884 0-155.435-0.058-205.456-5.147-49.219-5.007-79.020-14.484-102.102-29.907-22.712-15.176-42.212-34.676-57.388-57.388-15.423-23.083-24.9-52.884-29.908-102.102-5.088-50.021-5.146-114.572-5.146-205.456s0.058-155.437 5.147-205.453c5.007-49.222 14.484-79.021 29.907-102.106 15.176-22.714 34.676-42.214 57.388-57.389 23.083-15.424 52.884-24.902 102.102-29.907 50.021-5.088 114.572-5.146 205.456-5.146h384c90.886 0 155.437 0.058 205.453 5.146 49.222 5.005 79.021 14.483 102.106 29.907 22.714 15.174 42.214 34.675 57.389 57.389 15.424 23.085 24.902 52.883 29.907 102.106 5.088 50.016 5.146 114.568 5.146 205.453s-0.058 155.435-5.146 205.456c-5.005 49.219-14.483 79.020-29.907 102.102-15.174 22.712-34.675 42.212-57.389 57.388-23.085 15.423-52.883 24.9-102.106 29.908zM1095.174 954.361c56.806-5.779 104.23-17.874 145.722-45.594 33.19-22.179 61.69-50.68 83.872-83.873 27.718-41.486 39.814-88.913 45.594-145.722 5.638-55.448 5.638-124.882 5.638-212.512v-5.32c0-87.63 0-157.065-5.638-212.515-5.779-56.806-17.875-104.23-45.594-145.722-22.182-33.19-50.682-61.69-83.872-83.872-41.491-27.718-88.915-39.814-145.722-45.594-55.45-5.638-124.883-5.638-212.512-5.638h-389.325c-87.629 0-157.062 0-212.509 5.638-56.81 5.779-104.236 17.875-145.722 45.594-33.194 22.182-61.694 50.682-83.873 83.872-27.72 41.491-39.815 88.915-45.594 145.722-5.64 55.45-5.64 124.883-5.639 212.513v5.324c-0.001 87.629-0.001 157.063 5.639 212.509 5.779 56.81 17.874 104.236 45.594 145.722 22.179 33.194 50.68 61.694 83.873 83.873 41.486 27.72 88.913 39.815 145.722 45.594 55.447 5.64 124.881 5.64 212.51 5.639h389.324c87.629 0.001 157.062 0.001 212.512-5.639zM352 464c0-79.529 64.471-144 144-144v-96c-132.548 0-240 107.452-240 240s107.452 240 240 240v-96c-79.529 0-144-64.471-144-144zM880 320c79.526 0 144 64.471 144 144s-64.474 144-144 144v96c132.55 0 240-107.452 240-240s-107.45-240-240-240v96zM496 960c26.509 0 48-21.49 48-48v-864c0-26.509-21.491-48-48-48s-48 21.491-48 48v864c0 26.51 21.491 48 48 48zM880 960c26.509 0 48-21.49 48-48v-864c0-26.509-21.491-48-48-48s-48 21.491-48 48v864c0 26.51 21.491 48 48 48z" />
<glyph unicode="&#xe91f;" glyph-name="tick-nobg" d="M500.364 890.182c-237.784 0-430.545-192.762-430.545-430.545 0-237.782 192.762-430.545 430.545-430.545s430.545 192.763 430.545 430.545c0 237.784-192.763 430.545-430.545 430.545zM0 459.636c0 276.343 224.020 500.364 500.364 500.364 276.345 0 500.364-224.020 500.364-500.364 0-276.345-224.019-500.364-500.364-500.364-276.343 0-500.364 224.019-500.364 500.364zM687.956 600.684c13.633-13.633 13.633-35.736 0-49.369l-232.726-232.726c-13.633-13.633-35.736-13.633-49.369 0l-93.091 93.091c-13.633 13.633-13.633 35.733 0 49.366s35.736 13.633 49.369 0l68.406-68.403 208.044 208.041c13.633 13.633 35.733 13.633 49.366 0z" />
<glyph unicode="&#xe920;" glyph-name="telegram" d="M217.063 458.891c160.346 69.859 267.267 115.917 320.767 138.167 152.748 63.534 184.488 74.57 205.177 74.939 4.549 0.076 14.724-1.051 21.314-6.399 5.563-4.515 7.095-10.614 7.826-14.896 0.735-4.281 1.646-14.033 0.922-21.653-8.28-86.973-44.094-298.034-62.318-395.446-7.709-41.216-22.89-55.036-37.588-56.389-31.941-2.94-56.196 21.109-87.135 41.388-48.41 31.733-75.758 51.489-122.748 82.454-54.305 35.785-19.101 55.453 11.849 87.6 8.101 8.411 148.831 136.422 151.556 148.034 0.34 1.452 0.658 6.864-2.556 9.724-3.218 2.856-7.965 1.88-11.388 1.104-4.857-1.104-82.191-52.22-232.009-153.348-21.95-15.075-41.833-22.418-59.647-22.034-19.639 0.424-57.416 11.103-85.5 20.231-34.446 11.198-61.823 17.119-59.438 36.136 1.242 9.904 14.881 20.034 40.919 30.387z" />
<glyph unicode="&#xe921;" glyph-name="tv" d="M835.114 699.198c-35.16 4.727-81.757 4.801-148.568 4.801h-372.364c-66.812 0-113.409-0.074-148.568-4.801-34.154-4.592-52.24-12.991-65.122-25.873s-21.281-30.968-25.873-65.122c-4.727-35.158-4.801-81.755-4.801-148.567v-186.182c0-66.811 0.074-113.408 4.801-148.568 4.592-34.155 12.991-52.238 25.873-65.122s30.969-21.281 65.122-25.875c35.158-4.724 81.756-4.799 148.568-4.799h372.364c66.811 0 113.408 0.074 148.568 4.799 34.155 4.594 52.238 12.991 65.122 25.875s21.281 30.967 25.875 65.122c4.724 35.16 4.799 81.757 4.799 148.568v186.182c0 66.811-0.074 113.408-4.799 148.567-4.594 34.154-12.991 52.24-25.875 65.122s-30.967 21.281-65.122 25.873zM844.418 768.394c41.896-5.633 77.168-17.683 105.183-45.7 28.020-28.016 40.071-63.292 45.703-105.188 5.423-40.354 5.423-91.662 5.423-155.315v-191.293c0-63.656 0-114.963-5.423-155.318-5.632-41.896-17.683-77.172-45.698-105.188-28.020-28.016-63.293-40.066-105.188-45.698-40.355-5.427-91.662-5.423-155.318-5.423h-377.473c-63.655 0-114.963-0.005-155.317 5.423-41.896 5.632-77.171 17.683-105.188 45.698s-40.067 63.293-45.699 105.188c-5.425 40.355-5.425 91.662-5.424 155.318v191.293c-0.001 63.653-0.002 114.961 5.424 155.314 5.633 41.896 17.683 77.172 45.7 105.188s63.292 40.067 105.188 45.7c40.354 5.425 91.661 5.424 155.317 5.423h377.473c63.656 0.001 114.963 0.002 155.318-5.423zM500.364 708.541l-166.142 193.832c-12.547 14.638-10.852 36.676 3.786 49.223s36.676 10.852 49.224-3.786l113.132-131.986 113.129 131.986c12.549 14.638 34.588 16.334 49.226 3.786s16.333-34.585 3.784-49.223l-166.139-193.832zM686.545 773.817c19.279 0 34.909-15.629 34.909-34.909v-744.726c0-19.279-15.63-34.909-34.909-34.909s-34.909 15.63-34.909 34.909v744.726c0 19.28 15.63 34.909 34.909 34.909zM872.727 273.455c0 25.707-20.838 46.545-46.545 46.545s-46.545-20.838-46.545-46.545c0-25.707 20.838-46.545 46.545-46.545s46.545 20.838 46.545 46.545zM872.727 459.636c0 25.707-20.838 46.545-46.545 46.545s-46.545-20.837-46.545-46.545c0-25.707 20.838-46.545 46.545-46.545s46.545 20.838 46.545 46.545z" />
<glyph unicode="&#xe922;" glyph-name="building" d="M0-5.818c0 19.279 15.629 34.909 34.909 34.909h930.909c19.279 0 34.909-15.63 34.909-34.909s-15.63-34.909-34.909-34.909h-930.909c-19.28 0-34.909 15.63-34.909 34.909zM451.398 960h97.932c41.821 0.001 76.693 0.003 104.378-3.72 29.221-3.929 55.603-12.571 76.8-33.771 21.201-21.2 29.845-47.582 33.773-76.803 3.724-27.685 3.719-62.558 3.719-104.378v-747.147h-69.818v744.727c0 44.87-0.074 75.011-3.095 97.495-2.89 21.479-7.88 30.671-13.945 36.737s-15.258 11.056-36.738 13.944c-22.481 3.023-52.624 3.097-97.494 3.097h-93.091c-44.87 0-75.011-0.074-97.495-3.097-21.479-2.888-30.671-7.878-36.737-13.944s-11.056-15.258-13.944-36.737c-3.023-22.483-3.097-52.624-3.097-97.495v-744.727h-69.818v747.148c-0.001 41.82-0.002 76.693 3.719 104.377 3.929 29.221 12.571 55.603 33.771 76.803s47.582 29.842 76.803 33.771c27.684 3.722 62.557 3.721 104.377 3.72zM829.31 748.764c-17.101 1.739-39.536 1.782-72.946 1.782v69.818c0.596 0 1.192 0 1.783 0 31.167 0.001 57.172 0.001 78.229-2.14 22.039-2.242 42.487-7.116 60.919-19.432 13.978-9.339 25.977-21.339 35.314-35.315 12.316-18.432 17.194-38.883 19.433-60.921 2.141-21.054 2.141-47.060 2.141-78.226v-630.148h-69.818v628.364c0 33.412-0.042 55.844-1.783 72.945-1.68 16.518-4.65 24.15-8.024 29.197-4.245 6.353-9.695 11.808-16.049 16.053-5.050 3.373-12.684 6.343-29.198 8.024zM242.579 820.364h1.785v-69.818c-33.412 0-55.844-0.042-72.945-1.782-16.518-1.68-24.15-4.651-29.197-8.024-6.353-4.245-11.808-9.7-16.053-16.053-3.373-5.048-6.343-12.68-8.024-29.197-1.739-17.101-1.782-39.532-1.782-72.945v-628.364h-69.818v630.148c-0.001 31.166-0.001 57.172 2.14 78.226 2.242 22.038 7.116 42.489 19.432 60.921 9.339 13.976 21.339 25.976 35.315 35.315 18.432 12.316 38.883 17.19 60.921 19.432 21.054 2.142 47.060 2.141 78.226 2.14zM500.364 168.727c19.279 0 34.909-15.63 34.909-34.909v-139.636c0-19.279-15.63-34.909-34.909-34.909s-34.909 15.63-34.909 34.909v139.636c0 19.279 15.63 34.909 34.909 34.909zM372.364 459.636c0 19.279 15.629 34.909 34.909 34.909h186.182c19.279 0 34.909-15.63 34.909-34.909s-15.63-34.909-34.909-34.909h-186.182c-19.28 0-34.909 15.63-34.909 34.909zM162.909 506.182c0 19.28 15.629 34.909 34.909 34.909h69.818c19.28 0 34.909-15.629 34.909-34.909s-15.629-34.909-34.909-34.909h-69.818c-19.28 0-34.909 15.63-34.909 34.909zM162.909 366.545c0 19.279 15.629 34.909 34.909 34.909h69.818c19.28 0 34.909-15.63 34.909-34.909s-15.629-34.909-34.909-34.909h-69.818c-19.28 0-34.909 15.63-34.909 34.909zM698.182 506.182c0 19.28 15.63 34.909 34.909 34.909h69.818c19.279 0 34.909-15.629 34.909-34.909s-15.63-34.909-34.909-34.909h-69.818c-19.279 0-34.909 15.63-34.909 34.909zM698.182 366.545c0 19.279 15.63 34.909 34.909 34.909h69.818c19.279 0 34.909-15.63 34.909-34.909s-15.63-34.909-34.909-34.909h-69.818c-19.279 0-34.909 15.63-34.909 34.909zM162.909 645.818c0 19.28 15.629 34.909 34.909 34.909h69.818c19.28 0 34.909-15.629 34.909-34.909s-15.629-34.909-34.909-34.909h-69.818c-19.28 0-34.909 15.629-34.909 34.909zM698.182 645.818c0 19.28 15.63 34.909 34.909 34.909h69.818c19.279 0 34.909-15.629 34.909-34.909s-15.63-34.909-34.909-34.909h-69.818c-19.279 0-34.909 15.629-34.909 34.909zM372.364 320c0 19.279 15.629 34.909 34.909 34.909h186.182c19.279 0 34.909-15.63 34.909-34.909s-15.63-34.909-34.909-34.909h-186.182c-19.28 0-34.909 15.63-34.909 34.909zM500.364 750.545c-32.135 0-58.182-26.049-58.182-58.182s26.047-58.182 58.182-58.182c32.135 0 58.182 26.049 58.182 58.182s-26.047 58.182-58.182 58.182zM372.364 692.364c0 70.692 57.308 128 128 128s128-57.308 128-128c0-70.692-57.307-128-128-128s-128 57.308-128 128z" />
<glyph unicode="&#xe923;" glyph-name="bus" d="M497.738 960h5.25c85.541 0.001 153.293 0.001 206.317-7.128 54.57-7.337 98.742-22.795 133.576-57.628 34.83-34.833 50.288-79.003 57.628-133.573 7.126-53.025 7.126-120.778 7.126-206.318v-98.342c0-85.541 0-153.293-7.126-206.317-7.34-54.57-22.798-98.742-57.628-133.576-34.835-34.83-79.006-50.288-133.576-57.628-53.025-7.126-120.776-7.126-206.317-7.126h-5.25c-85.54 0-153.293 0-206.318 7.126-54.571 7.34-98.74 22.798-133.573 57.628-34.833 34.835-50.291 79.006-57.628 133.576-7.129 53.025-7.129 120.776-7.128 206.317v98.342c-0.001 85.539-0.001 153.292 7.128 206.317 7.336 54.571 22.795 98.74 57.628 133.573s79.003 50.291 133.573 57.628c53.025 7.129 120.778 7.128 206.318 7.128zM300.723 883.677c-46.829-6.296-73.809-18.103-93.507-37.801s-31.506-46.679-37.801-93.507c-6.431-47.833-6.505-110.887-6.505-199.64v-93.091c0-88.753 0.074-151.808 6.505-199.643 6.296-46.825 18.103-73.807 37.801-93.505s46.679-31.507 93.507-37.8c47.833-6.433 110.887-6.507 199.64-6.507s151.808 0.074 199.643 6.507c46.825 6.293 73.807 18.102 93.505 37.8s31.507 46.68 37.8 93.505c6.433 47.835 6.507 110.89 6.507 199.643v93.091c0 88.754-0.074 151.808-6.507 199.64-6.293 46.829-18.102 73.809-37.8 93.507s-46.68 31.506-93.505 37.801c-47.835 6.431-110.89 6.505-199.643 6.505s-151.808-0.074-199.64-6.505zM93.091 413.091c0 19.279 15.629 34.909 34.909 34.909h744.727c19.279 0 34.909-15.63 34.909-34.909s-15.63-34.909-34.909-34.909h-744.727c-19.28 0-34.909 15.63-34.909 34.909zM628.364 273.455c0 19.279 15.63 34.909 34.909 34.909h69.818c19.279 0 34.909-15.63 34.909-34.909s-15.63-34.909-34.909-34.909h-69.818c-19.279 0-34.909 15.63-34.909 34.909zM232.727 273.455c0 19.279 15.629 34.909 34.909 34.909h69.818c19.28 0 34.909-15.63 34.909-34.909s-15.629-34.909-34.909-34.909h-69.818c-19.28 0-34.909 15.63-34.909 34.909zM221.091 145.455c19.28 0 34.909-15.63 34.909-34.909v-69.818c0-6.428 5.21-11.636 11.636-11.636h69.818c6.427 0 11.636 5.208 11.636 11.636v46.545c0 19.279 15.629 34.909 34.909 34.909s34.909-15.63 34.909-34.909v-46.545c0-44.986-36.468-81.455-81.455-81.455h-69.818c-44.986 0-81.455 36.468-81.455 81.455v69.818c0 19.279 15.629 34.909 34.909 34.909zM779.636 145.455c19.279 0 34.909-15.63 34.909-34.909v-69.818c0-44.986-36.468-81.455-81.455-81.455h-69.818c-44.986 0-81.455 36.468-81.455 81.455v46.545c0 19.279 15.63 34.909 34.909 34.909s34.909-15.63 34.909-34.909v-46.545c0-6.428 5.208-11.636 11.636-11.636h69.818c6.428 0 11.636 5.208 11.636 11.636v69.818c0 19.279 15.63 34.909 34.909 34.909zM837.818 599.273c0 19.28 15.63 34.909 34.909 34.909h46.545c44.986 0 81.455-36.468 81.455-81.455v-46.545c0-25.637-12.074-49.78-32.582-65.164l-74.473-55.855c-15.425-11.567-37.306-8.443-48.873 6.982s-8.443 37.306 6.982 48.873l74.473 55.855c2.928 2.197 4.655 5.646 4.655 9.309v46.545c0 6.427-5.208 11.636-11.636 11.636h-46.545c-19.279 0-34.909 15.629-34.909 34.909zM0 552.727c0 44.986 36.468 81.455 81.455 81.455h46.545c19.28 0 34.909-15.629 34.909-34.909s-15.629-34.909-34.909-34.909h-46.545c-6.427 0-11.636-5.21-11.636-11.636v-46.545c0-3.663 1.725-7.112 4.655-9.309v0l74.473-55.855c15.424-11.567 18.55-33.448 6.982-48.873s-33.449-18.548-48.873-6.982l-74.473 55.855c-20.511 15.383-32.582 39.526-32.582 65.164v46.545zM116.364 785.455c0 19.28 15.629 34.909 34.909 34.909h698.182c19.279 0 34.909-15.629 34.909-34.909s-15.63-34.909-34.909-34.909h-698.182c-19.28 0-34.909 15.629-34.909 34.909z" />
<glyph unicode="&#xe924;" glyph-name="users-group" d="M377.905 886.857c-87.524 0-158.476-70.952-158.476-158.476s70.952-158.476 158.476-158.476c87.524 0 158.476 70.952 158.476 158.476s-70.952 158.476-158.476 158.476zM146.286 728.381c0 127.92 103.7 231.619 231.619 231.619 127.922 0 231.619-103.7 231.619-231.619s-103.697-231.619-231.619-231.619c-127.92 0-231.619 103.7-231.619 231.619zM633.905 874.667c0 20.198 16.374 36.571 36.571 36.571 100.991 0 182.857-81.868 182.857-182.857s-81.866-182.857-182.857-182.857c-20.197 0-36.571 16.374-36.571 36.571s16.374 36.571 36.571 36.571c60.592 0 109.714 49.121 109.714 109.714s-49.123 109.714-109.714 109.714c-20.197 0-36.571 16.374-36.571 36.571zM154.69 298.164c-56.337-32.193-81.547-71.090-81.547-106.164s25.21-73.972 81.547-106.164c55.302-31.603 134.143-52.312 223.214-52.312s167.912 20.709 223.212 52.312c56.34 32.193 81.549 71.090 81.549 106.164s-25.21 73.972-81.549 106.164c-55.301 31.603-134.141 52.312-223.212 52.312s-167.912-20.709-223.214-52.312zM118.401 361.672c68.236 38.99 160.062 61.947 259.504 61.947s191.269-22.957 259.506-61.947c67.199-38.4 118.399-97.022 118.399-169.672s-51.2-131.272-118.399-169.672c-68.237-38.99-160.064-61.947-259.506-61.947s-191.268 22.957-259.504 61.947c-67.201 38.4-118.401 97.022-118.401 169.672s51.2 131.272 118.401 169.672zM781.039 346.117c4.33 19.729 23.83 32.217 43.559 27.892 46.904-10.284 89.166-28.867 120.544-54.54 31.354-25.654 54.477-60.918 54.477-103.088 0-37.966-18.832-70.495-45.456-95.227-26.502-24.62-62.366-43.301-102.473-55.379-19.339-5.822-39.741 5.135-45.563 24.474s5.135 39.741 24.474 45.563c32.363 9.748 57.451 23.762 73.782 38.932 16.213 15.058 22.094 29.413 22.094 41.638 0 13.473-7.246 29.779-27.653 46.48-20.378 16.677-51.259 31.227-89.893 39.702-19.729 4.325-32.217 23.825-27.892 43.554z" />
<glyph unicode="&#xe925;" glyph-name="pen" d="M509.551 906.667h66.449c17.673 0 32-14.327 32-32s-14.327-32-32-32h-64c-101.471 0-174.355-0.068-229.821-7.525-54.545-7.334-87.43-21.281-111.735-45.586s-38.253-57.189-45.586-111.735c-7.457-55.466-7.525-128.35-7.525-229.821s0.068-174.353 7.525-229.82c7.334-54.545 21.281-87.428 45.586-111.735s57.189-38.255 111.735-45.585c55.466-7.458 128.35-7.526 229.821-7.526s174.353 0.068 229.82 7.526c54.545 7.33 87.428 21.278 111.735 45.585s38.255 57.19 45.585 111.735c7.458 55.467 7.526 128.35 7.526 229.82v64c0 17.673 14.327 32 32 32s32-14.327 32-32v-66.449c0-98.492 0-175.676-8.094-235.9-8.29-61.641-25.583-110.285-63.761-148.463s-86.822-55.471-148.463-63.761c-60.224-8.094-137.408-8.094-235.9-8.094h-4.898c-98.49 0-175.676 0-235.899 8.094-61.642 8.29-110.283 25.583-148.462 63.761s-55.473 86.822-63.761 148.463c-8.097 60.224-8.096 137.408-8.096 235.9v4.898c0 98.49-0.001 175.676 8.096 235.899 8.288 61.642 25.582 110.283 63.761 148.462s86.819 55.473 148.462 63.761c60.223 8.097 137.409 8.096 235.899 8.096zM715.546 862.895c58.359 58.363 152.986 58.363 211.349 0s58.364-152.989 0-211.352l-283.652-283.654c-15.842-15.842-25.762-25.766-36.838-34.406-13.043-10.172-27.157-18.893-42.086-26.010-12.681-6.042-25.993-10.479-47.249-17.562l-123.926-41.31c-22.88-7.625-48.105-1.673-65.158 15.381s-23.008 42.278-15.382 65.161l41.308 123.925c7.084 21.252 11.521 34.569 17.563 47.245 7.116 14.933 15.838 29.047 26.012 42.090 8.637 11.074 18.562 20.998 34.408 36.839 0.482 0.484 0.973 0.973 1.468 1.468l282.185 282.184zM881.638 817.64c-33.37 33.369-87.471 33.369-120.841 0l-16.068-16.069c0.969-4.090 2.325-8.963 4.211-14.399 6.114-17.624 17.681-40.834 39.539-62.691s45.069-33.428 62.694-39.543c5.431-1.886 10.308-3.241 14.396-4.209l16.068 16.069c33.37 33.37 33.37 87.473 0 120.842zM815.155 630.311c-22.016 9.468-47.659 24.646-71.927 48.915s-39.45 49.913-48.917 71.927l-215.697-215.697c-17.771-17.772-24.738-24.821-30.665-32.411-7.313-9.378-13.585-19.529-18.701-30.263-4.143-8.695-7.33-18.078-15.278-41.92l-18.428-55.283 44.035-44.036 55.283 18.428c23.842 7.949 33.229 11.136 41.92 15.279 10.739 5.116 20.885 11.388 30.263 18.701 7.595 5.922 14.639 12.894 32.414 30.665l215.697 215.697z" />
<glyph unicode="&#xe926;" glyph-name="lightbulb" horiz-adv-x="791" d="M384 890.182c-173.518 0-314.182-140.664-314.182-314.182 0-93.021 40.382-176.566 104.684-234.142l0.202-0.182c25.91-23.203 45.593-40.825 59.664-53.727 13.248-12.144 23.743-22.072 29.243-28.858l0.597-0.735c10.299-12.707 19.274-23.78 25.192-37.027 5.918-13.242 8.181-27.313 10.778-43.464l0.151-0.936c1.332-8.28 1.866-18.446 2.078-31.474h163.187c0.209 13.028 0.745 23.194 2.076 31.474l0.149 0.936c2.597 16.151 4.859 30.222 10.78 43.464 5.921 13.247 14.895 24.32 25.19 37.027l0.6 0.735c5.497 6.786 15.993 16.714 29.24 28.858 14.075 12.902 33.759 30.529 59.667 53.727l0.2 0.182c64.303 57.577 104.685 141.121 104.685 234.142 0 173.518-140.665 314.182-314.182 314.182zM465.155 75.636h-162.311c0.152-4.85 0.382-9.090 0.728-12.907 0.95-10.477 2.552-14.28 3.65-16.184 3.064-5.306 7.471-9.714 12.778-12.777 1.902-1.098 5.706-2.7 16.186-3.649 10.959-0.996 25.42-1.029 47.814-1.029s36.855 0.033 47.814 1.029c10.479 0.95 14.284 2.551 16.186 3.649 5.307 3.063 9.714 7.471 12.778 12.777 1.098 1.904 2.701 5.706 3.65 16.184 0.346 3.817 0.575 8.057 0.728 12.907zM0 576c0 212.077 171.923 384 384 384 212.075 0 384-171.923 384-384 0-113.701-49.459-215.896-127.926-286.157-26.154-23.417-45.531-40.769-59.262-53.355-6.865-6.298-12.116-11.213-15.988-14.988-1.932-1.88-3.407-3.37-4.51-4.524-0.545-0.568-0.954-1.015-1.252-1.345-0.303-0.34-0.433-0.498-0.428-0.493-12.111-14.946-14.732-18.8-16.291-22.295-1.564-3.491-2.686-8.015-5.739-27.006-1.206-7.498-1.331-20.34-1.331-55.291v-1.499c0-20.471 0-38.13-1.313-52.62-1.387-15.318-4.464-30.492-12.716-44.791-9.193-15.919-22.416-29.142-38.335-38.335-14.299-8.253-29.471-11.329-44.793-12.716-14.489-1.313-32.145-1.313-52.615-1.313h-3.002c-20.47 0-38.126 0-52.615 1.313-15.322 1.387-30.494 4.464-44.793 12.716-15.92 9.193-29.141 22.416-38.333 38.335-8.256 14.299-11.33 29.473-12.719 44.791-1.313 14.49-1.313 32.149-1.312 52.62v1.499c0 34.951-0.123 47.793-1.329 55.291-3.055 18.991-4.179 23.515-5.74 27.006-1.561 3.496-4.182 7.35-16.291 22.295-0.009 0.009-0.139 0.168-0.43 0.493-0.297 0.33-0.707 0.777-1.252 1.345-1.1 1.154-2.578 2.644-4.508 4.524-3.874 3.775-9.123 8.69-15.989 14.988-13.731 12.586-33.106 29.938-59.26 53.355-78.467 70.26-127.928 172.456-127.928 286.157zM384 354.909c19.28 0 34.909-15.63 34.909-34.909v-93.091c0-19.279-15.629-34.909-34.909-34.909s-34.909 15.63-34.909 34.909v93.091c0 19.279 15.629 34.909 34.909 34.909zM285.884 396.763c16.688 9.654 38.043 3.952 47.697-12.739 10.112-17.478 28.928-29.114 50.419-29.114s40.307 11.636 50.419 29.114c9.654 16.691 31.009 22.393 47.697 12.739s22.393-31.009 12.739-47.695c-22.081-38.172-63.434-63.977-110.856-63.977s-88.776 25.805-110.855 63.977c-9.654 16.687-3.951 38.042 12.738 47.695z" />
<glyph unicode="&#xe927;" glyph-name="arrow-left" horiz-adv-x="512" d="M463.238 948.443c20.128-17.252 22.459-47.555 5.206-67.682l-357.224-416.762 357.224-416.761c17.252-20.128 14.922-50.432-5.206-67.686-20.127-17.248-50.43-14.918-67.682 5.21l-384 447.999c-15.408 17.976-15.408 44.5 0 62.476l384 448c17.252 20.128 47.555 22.459 67.682 5.206z" />
<glyph unicode="&#xe928;" glyph-name="double-arrow-right1" horiz-adv-x="768" d="M272.778 948.436c-20.127-17.252-22.458-47.555-5.206-67.682l357.224-416.762-357.224-416.76c-17.252-20.128-14.922-50.432 5.206-67.686 20.128-17.248 50.43-14.918 67.683 5.21l384 447.998c15.405 17.976 15.405 44.5 0 62.476l-384 448c-17.252 20.128-47.555 22.459-67.683 5.206zM16.763 948.443c-20.128-17.252-22.459-47.555-5.206-67.682l357.225-416.762-357.225-416.761c-17.252-20.128-14.921-50.432 5.206-67.686 20.128-17.248 50.43-14.918 67.682 5.21l384 447.999c15.407 17.976 15.407 44.5 0 62.476l-384 448c-17.252 20.128-47.555 22.459-67.683 5.206z" />
<glyph unicode="&#xe929;" glyph-name="arrow-right1" horiz-adv-x="512" d="M16.763 948.443c20.128 17.252 50.43 14.921 67.683-5.206l384-448c15.407-17.976 15.407-44.5 0-62.476l-384-447.999c-17.252-20.128-47.555-22.458-67.683-5.21-20.128 17.254-22.459 47.558-5.206 67.686l357.225 416.761-357.225 416.762c-17.252 20.128-14.921 50.43 5.206 67.682z" />
<glyph unicode="&#xe92a;" glyph-name="arrow-up" horiz-adv-x="2048" d="M23.113 926.474c34.505 40.255 95.109 44.917 135.365 10.413l833.523-714.45 833.522 714.45c40.256 34.505 100.864 29.843 135.373-10.413 34.496-40.255 29.837-100.86-10.419-135.365l-895.999-768c-35.951-30.815-89.001-30.815-124.952 0l-896 768c-40.255 34.505-44.917 95.11-10.413 135.365z" />
<glyph unicode="&#xe92b;" glyph-name="double-arrow-right" horiz-adv-x="768" d="M463.237 948.436c20.127-17.252 22.459-47.555 5.206-67.682l-357.225-416.762 357.225-416.76c17.252-20.128 14.921-50.432-5.206-67.686-20.128-17.248-50.43-14.918-67.683 5.21l-384 447.998c-15.408 17.976-15.408 44.5 0 62.476l384 448c17.252 20.128 47.555 22.459 67.683 5.206zM719.232 948.443c20.128-17.252 22.458-47.555 5.203-67.682l-357.224-416.762 357.224-416.761c17.254-20.128 14.925-50.432-5.203-67.686-20.128-17.248-50.432-14.918-67.686 5.21l-383.999 447.999c-15.407 17.976-15.407 44.5 0 62.476l383.999 448c17.254 20.128 47.558 22.459 67.686 5.206z" />
<glyph unicode="&#xe92c;" glyph-name="women" horiz-adv-x="745" d="M325.809 192v81.455h69.818v-81.455h81.469c19.279 0 34.909-15.63 34.909-34.909s-15.63-34.909-34.909-34.909h-81.466l0.009-127.995c0.001-19.284-15.627-34.914-34.906-34.914s-34.91 15.625-34.912 34.904l-0.009 128.005h-81.445c-19.28 0-34.909 15.63-34.909 34.909s15.629 34.909 34.909 34.909h81.442zM360.727 890.182c-160.665 0-290.909-130.244-290.909-290.909s130.244-290.909 290.909-290.909c160.666 0 290.909 130.243 290.909 290.909s-130.243 290.909-290.909 290.909zM0 599.273c0 199.224 161.503 360.727 360.727 360.727s360.727-161.503 360.727-360.727c0-199.224-161.503-360.727-360.727-360.727s-360.727 161.503-360.727 360.727z" />
<glyph unicode="&#xe92d;" glyph-name="checklist" d="M343.395 853.834c12.058-12.92 11.36-33.169-1.56-45.228l-182.857-170.667c-6.49-6.058-15.206-9.147-24.062-8.529s-17.058 4.887-22.644 11.788l-51.81 64c-11.12 13.736-8.999 33.886 4.738 45.006s33.886 8.999 45.006-4.737l30.205-37.312 157.756 147.238c12.92 12.058 33.169 11.36 45.228-1.559zM343.395 555.168c12.058-12.92 11.36-33.171-1.56-45.228l-182.857-170.667c-6.49-6.059-15.206-9.148-24.062-8.529s-17.058 4.89-22.644 11.789l-51.81 64c-11.12 13.734-8.999 33.886 4.738 45.005 13.736 11.123 33.886 8.998 45.006-4.736l30.205-37.312 157.756 147.238c12.92 12.058 33.169 11.36 45.228-1.559zM343.395 256.499c12.058-12.919 11.36-33.169-1.56-45.227l-182.857-170.667c-6.49-6.059-15.206-9.148-24.062-8.529s-17.058 4.89-22.644 11.789l-51.81 64c-11.12 13.734-8.999 33.886 4.738 45.005 13.736 11.123 33.886 8.998 45.006-4.736l30.205-37.312 157.756 147.238c12.92 12.058 33.169 11.358 45.228-1.562zM480 149.333c0 17.673 14.327 32 32 32h426.667c17.673 0 32-14.327 32-32s-14.327-32-32-32h-426.667c-17.673 0-32 14.327-32 32zM480 448c0 17.673 14.327 32 32 32h426.667c17.673 0 32-14.327 32-32s-14.327-32-32-32h-426.667c-17.673 0-32 14.327-32 32zM480 746.667c0 17.673 14.327 32 32 32h426.667c17.673 0 32-14.327 32-32s-14.327-32-32-32h-426.667c-17.673 0-32 14.327-32 32z" />
<glyph unicode="&#xe92e;" glyph-name="arrow-right" d="M574.707 726.627c12.497 12.497 32.755 12.497 45.252 0l256-256.001c12.497-12.497 12.497-32.755 0-45.252l-256-256c-12.497-12.497-32.755-12.497-45.252 0s-12.497 32.755 0 45.252l201.37 201.374h-605.41c-17.673 0-32 14.327-32 32s14.327 32 32 32h605.41l-201.37 201.373c-12.497 12.497-12.497 32.758 0 45.255z" />
<glyph unicode="&#xe92f;" glyph-name="arrow-right-up" d="M355.556 704c0 15.709 12.735 28.444 28.444 28.444h384c15.71 0 28.444-12.735 28.444-28.444v-384c0-15.71-12.735-28.444-28.444-28.444s-28.444 12.735-28.444 28.444v315.329l-463.442-463.442c-11.108-11.108-29.118-11.108-40.227 0s-11.108 29.119 0 40.226l463.443 463.442h-315.329c-15.71 0-28.444 12.735-28.444 28.444z" />
<glyph unicode="&#xe930;" glyph-name="arabesque" d="M376.611 601.379c-2.365 0.003-4.704-0.464-6.89-1.366-2.182-0.906-4.166-2.23-5.84-3.904-1.67-1.67-2.998-3.654-3.901-5.84-0.906-2.182-1.37-4.525-1.37-6.89v-67.165l-47.478-47.488c-1.672-1.67-2.998-3.654-3.903-5.84-0.905-2.182-1.371-4.522-1.371-6.886s0.466-4.704 1.371-6.89c0.905-2.182 2.231-4.166 3.903-5.837l47.478-47.488v-67.165c0-2.365 0.464-4.707 1.37-6.89 0.902-2.186 2.23-4.17 3.901-5.84 1.674-1.674 3.658-2.998 5.84-3.901 2.186-0.906 4.525-1.37 6.89-1.37h67.165l47.498-47.498c1.67-1.67 3.654-2.995 5.84-3.901 2.182-0.906 4.525-1.373 6.886-1.373 2.365 0 4.704 0.467 6.89 1.373 2.182 0.906 4.166 2.23 5.837 3.901l47.498 47.498h67.165c2.365 0 4.704 0.464 6.89 1.37 2.186 0.902 4.17 2.23 5.84 3.901s2.998 3.658 3.901 5.84c0.906 2.186 1.37 4.525 1.37 6.89v67.165c69.987 71.859 70.589 48.24 0 120.429-1.421 100.522 16.035 83.946-85.165 85.165l-47.498 47.497c-1.67 1.672-3.654 2.998-5.84 3.903-2.182 0.905-4.525 1.371-6.886 1.371-2.365 0-4.704-0.466-6.89-1.371-2.182-0.905-4.166-2.231-5.837-3.903l-47.498-47.497h-67.165zM463.958 570.653l40.042 40.045 40.042-40.045c1.674-1.67 3.654-2.998 5.84-3.904 2.182-0.902 4.525-1.37 6.886-1.37h56.621v-56.618c0-4.774 1.898-9.354 5.274-12.726l40.026-40.035-40.026-40.035c-3.376-3.373-5.274-7.952-5.274-12.723v-56.621h-56.621c-2.362 0-4.704-0.464-6.886-1.37s-4.166-2.23-5.837-3.904l-40.045-40.042-40.042 40.042c-1.67 1.674-3.654 2.998-5.84 3.904-2.182 0.906-4.525 1.37-6.886 1.37h-56.621v56.618c0 4.774-1.898 9.354-5.274 12.726l-40.026 40.035 40.026 40.035c3.376 3.373 5.274 7.952 5.274 12.726v56.618h56.621c2.362 0 4.704 0.467 6.886 1.373 2.186 0.902 4.166 2.23 5.84 3.901zM504 374.307c21.539 0.195 42.128 8.886 57.293 24.186 15.162 15.299 23.667 35.968 23.667 57.507 0 21.542-8.509 42.208-23.67 57.507-15.162 15.302-35.754 23.994-57.293 24.189-21.536-0.195-42.128-8.89-57.29-24.189s-23.667-35.968-23.667-57.507c0-21.539 8.506-42.208 23.667-57.507 15.165-15.299 35.754-23.994 57.293-24.186zM504 501.696c12.029-0.138 23.52-5.011 31.981-13.565 8.458-8.557 13.203-20.099 13.203-32.131s-4.746-23.578-13.203-32.131c-8.461-8.554-19.952-13.427-31.981-13.562-12.032 0.134-23.523 5.008-31.981 13.562-8.461 8.557-13.203 20.102-13.203 32.131 0 12.032 4.742 23.578 13.203 32.131s19.952 13.427 31.981 13.565zM776.758 710.769c0.003 2.364-0.464 4.705-1.366 6.889-0.906 2.184-2.23 4.169-3.904 5.84-1.67 1.672-3.654 2.997-5.84 3.902-2.182 0.905-4.525 1.37-6.89 1.369h-141.776l-100.256 100.257c-1.67 1.672-3.654 2.998-5.84 3.903-2.182 0.905-4.525 1.371-6.886 1.371-2.365 0-4.704-0.466-6.89-1.371-2.182-0.905-4.166-2.231-5.837-3.903l-100.256-100.257h-141.777c-2.364 0.001-4.705-0.464-6.889-1.369s-4.169-2.23-5.84-3.902c-1.672-1.671-2.997-3.656-3.902-5.84s-1.37-4.525-1.369-6.889v-141.777l-100.266-100.266c-1.672-1.67-2.998-3.654-3.903-5.84-0.905-2.182-1.371-4.522-1.371-6.886s0.466-4.704 1.371-6.89c0.905-2.182 2.231-4.166 3.903-5.837l100.266-100.266v-141.776c-0.001-2.365 0.465-4.704 1.369-6.89s2.23-4.17 3.902-5.84c1.672-1.67 3.656-2.998 5.84-3.901 2.184-0.906 4.525-1.37 6.889-1.37h141.777l100.256-100.256c1.67-1.674 3.654-2.998 5.84-3.904 2.182-0.906 4.525-1.37 6.886-1.37 2.365 0 4.704 0.464 6.89 1.37 2.182 0.906 4.166 2.23 5.837 3.904l100.259 100.256h141.776c2.362 0 4.704 0.464 6.886 1.37 2.186 0.902 4.17 2.23 5.843 3.901 1.67 1.67 2.995 3.658 3.901 5.84 0.902 2.186 1.37 4.525 1.37 6.89v141.776l100.262 100.266c1.674 1.67 2.998 3.654 3.904 5.84 0.906 2.182 1.37 4.525 1.37 6.886 0 2.365-0.464 4.704-1.37 6.89-0.906 2.182-2.23 4.166-3.904 5.837l-100.266 100.266v141.777zM740.758 692.769v-87.777l-87.776 87.777h87.776zM740.758 554.086v-196.173l-138.682-138.682h-196.154l-138.683 138.682v196.173l138.683 138.683h196.154l138.682-138.683zM504 790.846l62.077-62.077h-124.154l62.077 62.077zM267.24 692.769h87.777l-87.777-87.777v87.777zM169.154 456l62.086 62.086v-124.173l-62.086 62.086zM267.24 219.232v87.776l87.777-87.776h-87.777zM504 121.155l-62.077 62.077h124.154l-62.077-62.077zM740.758 219.232h-87.776l87.776 87.776v-87.776zM838.845 456l-62.086-62.086v124.173l62.086-62.086zM1002.726 468.726l-137.075 137.075v193.851c0 2.364-0.464 4.705-1.37 6.889-0.902 2.184-2.227 4.169-3.901 5.84-1.67 1.672-3.654 2.997-5.84 3.902-2.182 0.904-4.525 1.37-6.89 1.369h-193.85l-137.075 137.074c-1.67 1.672-3.654 2.998-5.84 3.903-2.182 0.905-4.525 1.371-6.886 1.371-2.365 0-4.704-0.466-6.89-1.371-2.182-0.905-4.166-2.231-5.837-3.903l-137.075-137.074h-193.851c-2.364 0.001-4.705-0.465-6.889-1.369s-4.169-2.23-5.84-3.902c-1.672-1.671-2.997-3.656-3.902-5.84s-1.37-4.525-1.369-6.889v-193.851l-137.074-137.075c-1.672-1.67-2.998-3.654-3.903-5.84-0.905-2.182-1.371-4.522-1.371-6.886s0.466-4.704 1.371-6.89c0.905-2.182 2.231-4.166 3.903-5.837l137.074-137.075v-193.85c0-2.365 0.465-4.707 1.369-6.89 0.904-2.186 2.23-4.17 3.902-5.84 1.672-1.674 3.656-2.998 5.84-3.901 2.184-0.906 4.525-1.37 6.889-1.37h193.851l137.075-137.075c1.67-1.67 3.654-2.998 5.84-3.901 2.182-0.906 4.522-1.373 6.886-1.373s4.704 0.467 6.89 1.373c2.182 0.902 4.166 2.23 5.837 3.901l137.075 137.075h193.85c2.365 0 4.707 0.464 6.89 1.37 2.186 0.902 4.17 2.23 5.84 3.901 1.674 1.67 2.998 3.658 3.901 5.84 0.906 2.186 1.37 4.525 1.37 6.89v193.85l137.075 137.075c1.67 1.67 2.998 3.654 3.901 5.84 0.906 2.182 1.373 4.525 1.373 6.886 0 2.365-0.467 4.704-1.373 6.89-0.902 2.182-2.23 4.166-3.901 5.837zM834.925 326.378c-3.376-3.373-5.274-7.952-5.274-12.723v-183.306h-183.306c-2.362 0-4.704-0.467-6.886-1.37-2.182-0.906-4.166-2.234-5.837-3.904l-129.622-129.622-129.622 129.622c-1.67 1.67-3.654 2.998-5.837 3.904-2.186 0.902-4.525 1.37-6.89 1.37h-183.304v183.306c-0.001 4.771-1.899 9.35-5.274 12.723l-129.621 129.622 129.621 129.622c3.376 3.373 5.273 7.952 5.274 12.726v183.304h183.304c2.365 0 4.704 0.466 6.89 1.371 2.182 0.905 4.166 2.231 5.837 3.903l129.622 129.621 129.619-129.621c1.674-1.672 3.654-2.999 5.84-3.904 2.182-0.905 4.525-1.371 6.886-1.37h183.306v-183.304c0.003-4.774 1.898-9.35 5.274-12.726l129.622-129.622-129.622-129.622z" />
<glyph unicode="&#xe931;" glyph-name="facebook-circle" d="M1006.037 456.983c0 276.659-226.358 503.017-503.020 503.017-276.659 0-503.017-226.358-503.017-503.017 0-251.509 182.344-459.004 421.277-496.73v352.11h-125.755v144.62h125.755v113.179c0 125.754 75.453 194.919 188.633 194.919 56.589 0 113.179-12.575 113.179-12.575v-125.754h-62.879c-62.879 0-81.742-37.726-81.742-75.453v-94.316h138.332l-25.153-144.62h-119.463v-358.4c251.505 37.726 433.853 251.511 433.853 503.020z" />
<glyph unicode="&#xe932;" glyph-name="instagram" d="M512 701.867c82.136 0 93.334 0 126.936 0 29.864 0 44.8-7.467 55.998-11.2 14.936-7.467 26.134-11.2 37.336-22.4 11.198-11.2 18.666-22.4 22.4-37.334 3.73-11.2 7.464-26.133 11.198-56.001 0-33.598 0-41.066 0-126.932s0-93.334 0-126.932c0-29.868-7.468-44.8-11.198-56.002-7.468-14.932-11.202-26.134-22.4-37.332-11.202-11.202-22.4-18.666-37.336-22.4-11.198-3.734-26.134-7.468-55.998-11.202-33.602 0-41.066 0-126.936 0-85.866 0-93.33 0-126.932 0-29.866 0-44.8 7.468-56 11.202-14.933 7.468-26.133 11.198-37.333 22.4-11.2 11.198-18.667 22.4-22.4 37.332-3.733 11.202-7.467 26.134-11.2 56.002 0 33.598 0 41.066 0 126.932s0 93.334 0 126.932c0 29.868 7.467 44.801 11.2 56.001 7.467 14.934 11.2 26.134 22.4 37.334s22.4 18.666 37.333 22.4c11.2 3.733 26.134 7.466 56 11.2 33.602 0 44.8 0 126.932 0zM512 757.867c-85.866 0-93.33 0-126.932 0-33.6 0-56-7.467-74.666-14.934s-37.334-18.666-56-37.333c-18.667-18.667-26.134-33.6-37.334-56-7.466-18.667-11.2-41.067-14.933-74.668 0-33.598 0-44.8 0-126.932 0-85.866 0-93.334 0-126.932 0-33.602 7.467-56.002 14.933-74.668s18.667-37.332 37.334-55.998c18.666-18.67 33.6-26.134 56-37.336 18.666-7.468 41.066-11.198 74.666-14.932 33.602 0 44.8 0 126.932 0 82.136 0 93.334 0 126.936 0 33.598 0 55.998 7.464 74.664 14.932 18.67 7.468 37.336 18.666 56.002 37.336 18.666 18.666 26.134 33.598 37.332 55.998 7.468 18.666 11.202 41.066 14.936 74.668 0 33.598 0 44.8 0 126.932s0 93.334 0 126.932c0 33.601-7.468 56.001-14.936 74.668-7.464 18.667-18.666 37.333-37.332 56s-33.602 26.133-56.002 37.333c-18.666 7.467-41.066 11.2-74.664 14.934-33.602 0-41.066 0-126.936 0zM512 608.533c-89.6 0-160.532-70.933-160.532-160.533s70.932-160.534 160.532-160.534c89.6 0 160.534 70.934 160.534 160.534s-70.934 160.533-160.534 160.533zM512 343.468c-55.998 0-104.532 44.8-104.532 104.532 0 56.002 44.8 104.532 104.532 104.532 56.002 0 104.536-44.8 104.536-104.532 0-55.998-48.534-104.532-104.536-104.532zM676.268 574.932c20.619 0 37.332 16.717 37.332 37.335s-16.713 37.333-37.332 37.333c-20.619 0-37.332-16.715-37.332-37.333s16.713-37.335 37.332-37.335z" />
</font>
</defs>
</svg>
